  0
SECTION
  2
HEADER
  9
$ACADVER
  1
AC1015
  9
$ACADMAINTVER
 70
     6
  9
$DWGCODEPAGE
  3
ANSI_1252
  9
$INSBASE
 10
0.0
 20
0.0
 30
0.0
  9
$EXTMIN
 10
0.0
 20
0.0
 30
0.0
  9
$EXTMAX
 10
210.0000000000001
 20
297.0000000000001
 30
0.0
  9
$LIMMIN
 10
0.0
 20
0.0
  9
$LIMMAX
 10
12.0
 20
9.0
  9
$ORTHOMODE
 70
     0
  9
$REGENMODE
 70
     1
  9
$FILLMODE
 70
     1
  9
$QTEXTMODE
 70
     0
  9
$MIRRTEXT
 70
     1
  9
$LTSCALE
 40
1.0
  9
$ATTMODE
 70
     1
  9
$TEXTSIZE
 40
0.2
  9
$TRACEWID
 40
0.05
  9
$TEXTSTYLE
  7
Standard
  9
$CLAYER
  8
0
  9
$CELTYPE
  6
ByLayer
  9
$CECOLOR
 62
   256
  9
$CELTSCALE
 40
1.0
  9
$DISPSILH
 70
     0
  9
$DIMSCALE
 40
1.0
  9
$DIMASZ
 40
0.18
  9
$DIMEXO
 40
0.0625
  9
$DIMDLI
 40
0.38
  9
$DIMRND
 40
0.0
  9
$DIMDLE
 40
0.0
  9
$DIMEXE
 40
0.18
  9
$DIMTP
 40
0.0
  9
$DIMTM
 40
0.0
  9
$DIMTXT
 40
0.18
  9
$DIMCEN
 40
0.09
  9
$DIMTSZ
 40
0.0
  9
$DIMTOL
 70
     0
  9
$DIMLIM
 70
     0
  9
$DIMTIH
 70
     1
  9
$DIMTOH
 70
     1
  9
$DIMSE1
 70
     0
  9
$DIMSE2
 70
     0
  9
$DIMTAD
 70
     0
  9
$DIMZIN
 70
     0
  9
$DIMBLK
  1

  9
$DIMASO
 70
     1
  9
$DIMSHO
 70
     1
  9
$DIMPOST
  1

  9
$DIMAPOST
  1

  9
$DIMALT
 70
     0
  9
$DIMALTD
 70
     2
  9
$DIMALTF
 40
25.4
  9
$DIMLFAC
 40
1.0
  9
$DIMTOFL
 70
     0
  9
$DIMTVP
 40
0.0
  9
$DIMTIX
 70
     0
  9
$DIMSOXD
 70
     0
  9
$DIMSAH
 70
     0
  9
$DIMBLK1
  1

  9
$DIMBLK2
  1

  9
$DIMSTYLE
  2
Standard
  9
$DIMCLRD
 70
     0
  9
$DIMCLRE
 70
     0
  9
$DIMCLRT
 70
     0
  9
$DIMTFAC
 40
1.0
  9
$DIMGAP
 40
0.09
  9
$DIMJUST
 70
     0
  9
$DIMSD1
 70
     0
  9
$DIMSD2
 70
     0
  9
$DIMTOLJ
 70
     1
  9
$DIMTZIN
 70
     0
  9
$DIMALTZ
 70
     0
  9
$DIMALTTZ
 70
     0
  9
$DIMUPT
 70
     0
  9
$DIMDEC
 70
     4
  9
$DIMTDEC
 70
     4
  9
$DIMALTU
 70
     2
  9
$DIMALTTD
 70
     2
  9
$DIMTXSTY
  7
Standard
  9
$DIMAUNIT
 70
     0
  9
$DIMADEC
 70
     0
  9
$DIMALTRND
 40
0.0
  9
$DIMAZIN
 70
     0
  9
$DIMDSEP
 70
    46
  9
$DIMATFIT
 70
     3
  9
$DIMFRAC
 70
     0
  9
$DIMLDRBLK
  1

  9
$DIMLUNIT
 70
     2
  9
$DIMLWD
 70
    -2
  9
$DIMLWE
 70
    -2
  9
$DIMTMOVE
 70
     0
  9
$LUNITS
 70
     2
  9
$LUPREC
 70
     4
  9
$SKETCHINC
 40
0.1
  9
$FILLETRAD
 40
0.5
  9
$AUNITS
 70
     0
  9
$AUPREC
 70
     0
  9
$MENU
  1
.
  9
$ELEVATION
 40
0.0
  9
$PELEVATION
 40
0.0
  9
$THICKNESS
 40
0.0
  9
$LIMCHECK
 70
     0
  9
$CHAMFERA
 40
0.5
  9
$CHAMFERB
 40
0.5
  9
$CHAMFERC
 40
1.0
  9
$CHAMFERD
 40
0.0
  9
$SKPOLY
 70
     0
  9
$TDCREATE
 40
2456997.491338414
  9
$TDUCREATE
 40
2456997.449671748
  9
$TDUPDATE
 40
2456997.491338773
  9
$TDUUPDATE
 40
2456997.449672107
  9
$TDINDWG
 40
0.0000000116
  9
$TDUSRTIMER
 40
0.0000000116
  9
$USRTIMER
 70
     1
  9
$ANGBASE
 50
0.0
  9
$ANGDIR
 70
     0
  9
$PDMODE
 70
     0
  9
$PDSIZE
 40
0.0
  9
$PLINEWID
 40
0.0
  9
$SPLFRAME
 70
     0
  9
$SPLINETYPE
 70
     6
  9
$SPLINESEGS
 70
     8
  9
$HANDSEED
  5
333
  9
$SURFTAB1
 70
     6
  9
$SURFTAB2
 70
     6
  9
$SURFTYPE
 70
     6
  9
$SURFU
 70
     6
  9
$SURFV
 70
     6
  9
$UCSBASE
  2

  9
$UCSNAME
  2

  9
$UCSORG
 10
0.0
 20
0.0
 30
0.0
  9
$UCSXDIR
 10
1.0
 20
0.0
 30
0.0
  9
$UCSYDIR
 10
0.0
 20
1.0
 30
0.0
  9
$UCSORTHOREF
  2

  9
$UCSORTHOVIEW
 70
     0
  9
$UCSORGTOP
 10
0.0
 20
0.0
 30
0.0
  9
$UCSORGBOTTOM
 10
0.0
 20
0.0
 30
0.0
  9
$UCSORGLEFT
 10
0.0
 20
0.0
 30
0.0
  9
$UCSORGRIGHT
 10
0.0
 20
0.0
 30
0.0
  9
$UCSORGFRONT
 10
0.0
 20
0.0
 30
0.0
  9
$UCSORGBACK
 10
0.0
 20
0.0
 30
0.0
  9
$PUCSBASE
  2

  9
$PUCSNAME
  2

  9
$PUCSORG
 10
0.0
 20
0.0
 30
0.0
  9
$PUCSXDIR
 10
1.0
 20
0.0
 30
0.0
  9
$PUCSYDIR
 10
0.0
 20
1.0
 30
0.0
  9
$PUCSORTHOREF
  2

  9
$PUCSORTHOVIEW
 70
     0
  9
$PUCSORGTOP
 10
0.0
 20
0.0
 30
0.0
  9
$PUCSORGBOTTOM
 10
0.0
 20
0.0
 30
0.0
  9
$PUCSORGLEFT
 10
0.0
 20
0.0
 30
0.0
  9
$PUCSORGRIGHT
 10
0.0
 20
0.0
 30
0.0
  9
$PUCSORGFRONT
 10
0.0
 20
0.0
 30
0.0
  9
$PUCSORGBACK
 10
0.0
 20
0.0
 30
0.0
  9
$USERI1
 70
     0
  9
$USERI2
 70
     0
  9
$USERI3
 70
     0
  9
$USERI4
 70
     0
  9
$USERI5
 70
     0
  9
$USERR1
 40
18.1
  9
$USERR2
 40
0.0
  9
$USERR3
 40
0.0
  9
$USERR4
 40
0.0
  9
$USERR5
 40
0.0
  9
$WORLDVIEW
 70
     1
  9
$SHADEDGE
 70
     3
  9
$SHADEDIF
 70
    70
  9
$TILEMODE
 70
     1
  9
$MAXACTVP
 70
    64
  9
$PINSBASE
 10
0.0
 20
0.0
 30
0.0
  9
$PLIMCHECK
 70
     0
  9
$PEXTMIN
 10
1.00000000000000E+20
 20
1.00000000000000E+20
 30
1.00000000000000E+20
  9
$PEXTMAX
 10
-1.00000000000000E+20
 20
-1.00000000000000E+20
 30
-1.00000000000000E+20
  9
$PLIMMIN
 10
0.0
 20
0.0
  9
$PLIMMAX
 10
12.0
 20
9.0
  9
$UNITMODE
 70
     0
  9
$VISRETAIN
 70
     1
  9
$PLINEGEN
 70
     0
  9
$PSLTSCALE
 70
     1
  9
$TREEDEPTH
 70
  3020
  9
$CMLSTYLE
  2
Standard
  9
$CMLJUST
 70
     0
  9
$CMLSCALE
 40
1.0
  9
$PROXYGRAPHICS
 70
     1
  9
$MEASUREMENT
 70
     1
  9
$CELWEIGHT
370
    -1
  9
$ENDCAPS
280
     0
  9
$JOINSTYLE
280
     0
  9
$LWDISPLAY
290
     0
  9
$INSUNITS
 70
     4
  9
$HYPERLINKBASE
  1

  9
$STYLESHEET
  1

  9
$XEDIT
290
     1
  9
$CEPSNTYPE
380
     0
  9
$PSTYLEMODE
290
     1
  9
$FINGERPRINTGUID
  2
{63BD4360-64D2-4F9C-B418-10285A2088C6}
  9
$VERSIONGUID
  2
{FAEB1C32-E019-11D5-929B-00C0DF256EC4}
  9
$EXTNAMES
290
     1
  9
$PSVPSCALE
 40
0.0
  9
$OLESTARTUP
290
     0
  0
ENDSEC
  0
SECTION
  2
CLASSES
  0
CLASS
  1
ACDBDICTIONARYWDFLT
  2
AcDbDictionaryWithDefault
  3
ObjectDBX Classes
 90
        0
280
     0
281
     0
  0
CLASS
  1
VISUALSTYLE
  2
AcDbVisualStyle
  3
ObjectDBX Classes
 90
     4095
280
     0
281
     0
  0
CLASS
  1
MATERIAL
  2
AcDbMaterial
  3
ObjectDBX Classes
 90
     1153
280
     0
281
     0
  0
CLASS
  1
DICTIONARYVAR
  2
AcDbDictionaryVar
  3
ObjectDBX Classes
 90
        0
280
     0
281
     0
  0
CLASS
  1
ACDBPLACEHOLDER
  2
AcDbPlaceHolder
  3
ObjectDBX Classes
 90
        0
280
     0
281
     0
  0
CLASS
  1
LAYOUT
  2
AcDbLayout
  3
ObjectDBX Classes
 90
        0
280
     0
281
     0
  0
ENDSEC
  0
SECTION
  2
TABLES
  0
TABLE
  2
VPORT
  5
8
330
0
100
AcDbSymbolTable
 70
     1
  0
VPORT
  5
29
330
8
100
AcDbSymbolTableRecord
100
AcDbViewportTableRecord
  2
*Active
 70
     0
 10
0.0
 20
0.0
 11
1.0
 21
1.0
 12
105.0000000000001
 22
148.5000000000001
 13
0.0
 23
0.0
 14
0.5
 24
0.5
 15
0.5
 25
0.5
 16
0.0
 26
0.0
 36
1.0
 17
0.0
 27
0.0
 37
0.0
 40
326.7000000000002
 41
1.60267857142857
 42
50.0
 43
0.0
 44
0.0
 50
0.0
 51
0.0
 71
     0
 72
   100
 73
     1
 74
     3
 75
     0
 76
     0
 77
     0
 78
     0
281
     0
 65
     1
110
0.0
120
0.0
130
0.0
111
1.0
121
0.0
131
0.0
112
0.0
122
1.0
132
0.0
 79
     0
146
0.0
  0
ENDTAB
  0
TABLE
  2
LTYPE
  5
5
330
0
100
AcDbSymbolTable
 70
     8
  0
LTYPE
  5
14
330
5
100
AcDbSymbolTableRecord
100
AcDbLinetypeTableRecord
  2
ByBlock
 70
     0
  3

 72
    65
 73
     0
 40
0.0
  0
LTYPE
  5
15
330
5
100
AcDbSymbolTableRecord
100
AcDbLinetypeTableRecord
  2
ByLayer
 70
     0
  3

 72
    65
 73
     0
 40
0.0
  0
LTYPE
  5
16
330
5
100
AcDbSymbolTableRecord
100
AcDbLinetypeTableRecord
  2
Continuous
 70
     0
  3
Solid line
 72
    65
 73
     0
 40
0.0
  0
LTYPE
  5
3F
330
5
100
AcDbSymbolTableRecord
100
AcDbLinetypeTableRecord
  2
DASHED
 70
     0
  3
Dashed
 72
    65
 73
     2
 40
15.0
 49
7.0
 74
     0
 49
-8.0
 74
     0
  0
LTYPE
  5
40
330
5
100
AcDbSymbolTableRecord
100
AcDbLinetypeTableRecord
  2
DOTTED
 70
     0
  3
Dotted
 72
    65
 73
     2
 40
1.0
 49
0.0
 74
     0
 49
-1.0
 74
     0
  0
LTYPE
  5
41
330
5
100
AcDbSymbolTableRecord
100
AcDbLinetypeTableRecord
  2
DOT_CENTER
 70
     0
  3
Dot_Center
 72
    65
 73
     4
 40
14.0
 49
12.0
 74
     0
 49
-1.0
 74
     0
 49
0.0
 74
     0
 49
-1.0
 74
     0
  0
LTYPE
  5
42
330
5
100
AcDbSymbolTableRecord
100
AcDbLinetypeTableRecord
  2
LONG_DASHED
 70
     0
  3
Long_Dashed
 72
    65
 73
     2
 40
15.0
 49
10.0
 74
     0
 49
-5.0
 74
     0
  0
LTYPE
  5
43
330
5
100
AcDbSymbolTableRecord
100
AcDbLinetypeTableRecord
  2
DASH_CENTER
 70
     0
  3
Dash_Center
 72
    65
 73
     4
 40
14.0
 49
11.0
 74
     0
 49
-1.0
 74
     0
 49
1.0
 74
     0
 49
-1.0
 74
     0
  0
LTYPE
  5
44
330
5
100
AcDbSymbolTableRecord
100
AcDbLinetypeTableRecord
  2
PHANTOM
 70
     0
  3
Phantom
 72
    65
 73
     6
 40
13.0
 49
10.0
 74
     0
 49
-1.0
 74
     0
 49
0.0
 74
     0
 49
-1.0
 74
     0
 49
0.0
 74
     0
 49
-1.0
 74
     0
  0
LTYPE
  5
45
330
5
100
AcDbSymbolTableRecord
100
AcDbLinetypeTableRecord
  2
CENTER_DASH_DASH
 70
     0
  3
Center_Dash_Dash
 72
    65
 73
     6
 40
14.0
 49
9.0
 74
     0
 49
-1.0
 74
     0
 49
1.0
 74
     0
 49
-1.0
 74
     0
 49
1.0
 74
     0
 49
-1.0
 74
     0
  0
ENDTAB
  0
TABLE
  2
LAYER
  5
2
330
0
100
AcDbSymbolTable
 70
     2
  0
LAYER
  5
10
330
2
100
AcDbSymbolTableRecord
100
AcDbLayerTableRecord
  2
0
 70
     0
 62
     7
  6
Continuous
370
    -3
390
F
  0
LAYER
  5
46
330
2
100
AcDbSymbolTableRecord
100
AcDbLayerTableRecord
  2
1
 70
     0
 62
     7
  6
Continuous
370
    -3
390
F
  0
ENDTAB
  0
TABLE
  2
STYLE
  5
3
330
0
100
AcDbSymbolTable
 70
     4
  0
STYLE
  5
11
330
3
100
AcDbSymbolTableRecord
100
AcDbTextStyleTableRecord
  2
Standard
 70
     0
 40
0.0
 41
1.0
 50
0.0
 71
     0
 42
0.2
  3
txt
  4

  0
STYLE
  5
9B
330
3
100
AcDbSymbolTableRecord
100
AcDbTextStyleTableRecord
  2
CONVERTER_11
 70
     0
 40
0.0
 41
1.2
 50
0.0
 71
     0
 42
0.2
  3
ARIAL.TTF
  4

  0
STYLE
  5
A4
330
3
100
AcDbSymbolTableRecord
100
AcDbTextStyleTableRecord
  2
CONVERTER_12
 70
     0
 40
0.0
 41
1.38
 50
0.0
 71
     0
 42
0.2
  3
ARIAL.TTF
  4

  0
STYLE
  5
2EC
330
3
100
AcDbSymbolTableRecord
100
AcDbTextStyleTableRecord
  2
CONVERTER_13
 70
     0
 40
0.0
 41
0.95
 50
0.0
 71
     0
 42
0.2
  3
simplex.shx
  4

  0
ENDTAB
  0
TABLE
  2
VIEW
  5
6
330
0
100
AcDbSymbolTable
 70
     0
  0
ENDTAB
  0
TABLE
  2
UCS
  5
7
330
0
100
AcDbSymbolTable
 70
     0
  0
ENDTAB
  0
TABLE
  2
APPID
  5
9
330
0
100
AcDbSymbolTable
 70
     1
  0
APPID
  5
12
330
9
100
AcDbSymbolTableRecord
100
AcDbRegAppTableRecord
  2
ACAD
 70
     0
  0
ENDTAB
  0
TABLE
  2
DIMSTYLE
  5
A
330
0
100
AcDbSymbolTable
 70
     4
100
AcDbDimStyleTable
  0
DIMSTYLE
105
27
330
A
100
AcDbSymbolTableRecord
100
AcDbDimStyleTableRecord
  2
Standard
 70
     0
178
     0
340
11
  0
DIMSTYLE
105
2F0
102
{ACAD_REACTORS
330
2F1
102
}
330
A
100
AcDbSymbolTableRecord
100
AcDbDimStyleTableRecord
  2
ME10_DIM_10
 70
     0
 41
3.0
 42
0.5
 44
1.0
 73
     0
 74
     0
 77
     1
 78
     8
140
3.0
147
2.0
172
     1
173
     1
174
     1
175
     1
176
     2
177
     2
271
     2
178
     4
271
     2
340
2EC
  0
DIMSTYLE
105
2FB
102
{ACAD_REACTORS
330
2FC
102
}
330
A
100
AcDbSymbolTableRecord
100
AcDbDimStyleTableRecord
  2
ME10_DIM_11
 70
     0
 41
3.0
 42
0.5
 44
1.0
 73
     0
 74
     0
 77
     1
 78
     8
140
3.0
147
2.0
172
     1
173
     1
174
     1
175
     1
176
     2
177
     2
271
     2
178
     4
271
     2
340
2EC
  0
DIMSTYLE
105
306
102
{ACAD_REACTORS
330
307
102
}
330
A
100
AcDbSymbolTableRecord
100
AcDbDimStyleTableRecord
  2
ME10_DIM_12
 70
     0
 41
3.0
 42
0.5
 44
1.0
 73
     0
 74
     0
 77
     1
 78
     8
140
3.0
147
2.0
172
     1
173
     1
174
     1
175
     1
176
     2
177
     2
271
     2
178
     4
271
     2
340
2EC
  0
ENDTAB
  0
TABLE
  2
BLOCK_RECORD
  5
1
330
0
100
AcDbSymbolTable
 70
     6
  0
BLOCK_RECORD
  5
1F
330
1
100
AcDbSymbolTableRecord
100
AcDbBlockTableRecord
  2
*Model_Space
340
22
  0
BLOCK_RECORD
  5
1B
330
1
100
AcDbSymbolTableRecord
100
AcDbBlockTableRecord
  2
*Paper_Space
340
1E
  0
BLOCK_RECORD
  5
23
330
1
100
AcDbSymbolTableRecord
100
AcDbBlockTableRecord
  2
*Paper_Space0
340
26
  0
BLOCK_RECORD
  5
47
330
1
100
AcDbSymbolTableRecord
100
AcDbBlockTableRecord
  2
_formato_A4
340
0
102
{BLKREFS
331
4B
102
}
  0
BLOCK_RECORD
  5
4A
330
1
100
AcDbSymbolTableRecord
100
AcDbBlockTableRecord
  2
A4
340
0
102
{BLKREFS
331
4E
102
}
  0
BLOCK_RECORD
  5
2E6
330
1
100
AcDbSymbolTableRecord
100
AcDbBlockTableRecord
  2
*D3
340
0
  0
BLOCK_RECORD
  5
2F2
330
1
100
AcDbSymbolTableRecord
100
AcDbBlockTableRecord
  2
*D4
340
0
  0
BLOCK_RECORD
  5
2FD
330
1
100
AcDbSymbolTableRecord
100
AcDbBlockTableRecord
  2
*D5
340
0
  0
ENDTAB
  0
ENDSEC
  0
SECTION
  2
BLOCKS
  0
BLOCK
  5
20
330
1F
100
AcDbEntity
  8
0
100
AcDbBlockBegin
  2
*Model_Space
 70
     0
 10
0.0
 20
0.0
 30
0.0
  3
*Model_Space
  1

  0
ENDBLK
  5
21
330
1F
100
AcDbEntity
  8
0
100
AcDbBlockEnd
  0
BLOCK
  5
1C
330
1B
100
AcDbEntity
 67
     1
  8
0
100
AcDbBlockBegin
  2
*Paper_Space
 70
     0
 10
0.0
 20
0.0
 30
0.0
  3
*Paper_Space
  1

  0
ENDBLK
  5
1D
330
1B
100
AcDbEntity
 67
     1
  8
0
100
AcDbBlockEnd
  0
BLOCK
  5
24
330
23
100
AcDbEntity
  8
0
100
AcDbBlockBegin
  2
*Paper_Space0
 70
     0
 10
0.0
 20
0.0
 30
0.0
  3
*Paper_Space0
  1

  0
ENDBLK
  5
25
330
23
100
AcDbEntity
  8
0
100
AcDbBlockEnd
  0
BLOCK
  5
48
330
47
100
AcDbEntity
  8
0
100
AcDbBlockBegin
  2
_formato_A4
 70
     0
 10
210.0000000000001
 20
0.0
 30
0.0
  3
_formato_A4
  1

  0
LINE
  5
4F
330
47
100
AcDbEntity
  8
1
  6
Continuous
 62
     7
100
AcDbLine
 10
21.00000000000011
 20
20.0
 30
0.0
 11
205.0000000000001
 21
20.0
 31
0.0
  0
LINE
  5
50
330
47
100
AcDbEntity
  8
1
  6
Continuous
 62
     7
100
AcDbLine
 10
21.00000000000011
 20
4.99999999999989
 30
0.0
 11
205.0000000000001
 21
4.99999999999989
 31
0.0
  0
LINE
  5
51
330
47
100
AcDbEntity
  8
1
  6
Continuous
 62
     7
100
AcDbLine
 10
46.00000000000023
 20
35.0
 30
0.0
 11
46.00000000000023
 21
40.0
 31
0.0
  0
LINE
  5
52
330
47
100
AcDbEntity
  8
1
  6
Continuous
 62
     7
100
AcDbLine
 10
28.00000000000011
 20
35.0
 30
0.0
 11
28.00000000000011
 21
40.0
 31
0.0
  0
LINE
  5
53
330
47
100
AcDbEntity
  8
1
  6
Continuous
 62
     7
100
AcDbLine
 10
21.00000000000011
 20
40.0
 30
0.0
 11
205.0000000000001
 21
40.0
 31
0.0
  0
LINE
  5
54
330
47
100
AcDbEntity
  8
1
  6
Continuous
 62
     7
100
AcDbLine
 10
46.00000000000023
 20
30.0
 30
0.0
 11
46.00000000000023
 21
35.0
 31
0.0
  0
LINE
  5
55
330
47
100
AcDbEntity
  8
1
  6
Continuous
 62
     7
100
AcDbLine
 10
28.00000000000011
 20
30.0
 30
0.0
 11
28.00000000000011
 21
35.0
 31
0.0
  0
LINE
  5
56
330
47
100
AcDbEntity
  8
1
  6
Continuous
 62
     7
100
AcDbLine
 10
21.00000000000011
 20
35.0
 30
0.0
 11
205.0000000000001
 21
35.0
 31
0.0
  0
LINE
  5
57
330
47
100
AcDbEntity
  8
1
  6
Continuous
 62
     7
100
AcDbLine
 10
46.00000000000023
 20
25.0
 30
0.0
 11
46.00000000000023
 21
30.0
 31
0.0
  0
LINE
  5
58
330
47
100
AcDbEntity
  8
1
  6
Continuous
 62
     7
100
AcDbLine
 10
28.00000000000011
 20
25.0
 30
0.0
 11
28.00000000000011
 21
30.0
 31
0.0
  0
LINE
  5
59
330
47
100
AcDbEntity
  8
1
  6
Continuous
 62
     7
100
AcDbLine
 10
21.00000000000011
 20
30.0
 30
0.0
 11
205.0000000000001
 21
30.0
 31
0.0
  0
LINE
  5
5A
330
47
100
AcDbEntity
  8
1
  6
Continuous
 62
     7
100
AcDbLine
 10
46.00000000000023
 20
20.0
 30
0.0
 11
46.00000000000023
 21
25.0
 31
0.0
  0
LINE
  5
5B
330
47
100
AcDbEntity
  8
1
  6
Continuous
 62
     7
100
AcDbLine
 10
28.00000000000011
 20
20.0
 30
0.0
 11
28.00000000000011
 21
25.0
 31
0.0
  0
LINE
  5
5C
330
47
100
AcDbEntity
  8
1
  6
Continuous
 62
     7
100
AcDbLine
 10
21.00000000000011
 20
25.0
 30
0.0
 11
205.0000000000001
 21
25.0
 31
0.0
  0
LINE
  5
5D
102
{ACAD_REACTORS
330
A6
102
}
330
47
100
AcDbEntity
  8
1
  6
Continuous
 62
     7
100
AcDbLine
 10
195.8428748399059
 20
10.55800208038033
 30
0.0
 11
194.5095415065727
 21
9.78877131114973
 31
0.0
  0
LINE
  5
5E
102
{ACAD_REACTORS
330
A6
102
}
330
47
100
AcDbEntity
  8
1
  6
Continuous
 62
     7
100
AcDbLine
 10
194.6763006887428
 20
10.65463653264794
 30
0.0
 11
195.5097265375796
 21
11.13545913774624
 31
0.0
  0
LINE
  5
5F
102
{ACAD_REACTORS
330
A6
102
}
330
47
100
AcDbEntity
  8
1
  6
Continuous
 62
     7
100
AcDbLine
 10
194.6763006887428
 20
12.16666666666663
 30
0.0
 11
194.6763006887428
 21
10.65463653264794
 31
0.0
  0
LINE
  5
60
102
{ACAD_REACTORS
330
A6
102
}
330
47
100
AcDbEntity
  8
1
  6
Continuous
 62
     7
100
AcDbLine
 10
195.6763006887428
 20
12.16666666666663
 30
0.0
 11
194.6763006887428
 21
12.16666666666663
 31
0.0
  0
LINE
  5
61
102
{ACAD_REACTORS
330
A6
102
}
330
47
100
AcDbEntity
  8
1
  6
Continuous
 62
     7
100
AcDbLine
 10
194.6763006887428
 20
12.83333333333326
 30
0.0
 11
195.6763006887428
 21
12.83333333333326
 31
0.0
  0
LINE
  5
62
102
{ACAD_REACTORS
330
A6
102
}
330
47
100
AcDbEntity
  8
1
  6
Continuous
 62
     7
100
AcDbLine
 10
194.6763006887428
 20
14.34536346735195
 30
0.0
 11
194.6763006887428
 21
12.83333333333326
 31
0.0
  0
LINE
  5
63
102
{ACAD_REACTORS
330
A6
102
}
330
47
100
AcDbEntity
  8
1
  6
Continuous
 62
     7
100
AcDbLine
 10
195.5097265375796
 20
13.86454086225376
 30
0.0
 11
194.6763006887428
 21
14.34536346735195
 31
0.0
  0
LINE
  5
64
102
{ACAD_REACTORS
330
A6
102
}
330
47
100
AcDbEntity
  8
1
  6
Continuous
 62
     7
100
AcDbLine
 10
194.5095415065727
 20
15.21122868885027
 30
0.0
 11
195.8428748399059
 21
14.44199791961944
 31
0.0
  0
LINE
  5
65
102
{ACAD_REACTORS
330
A7
102
}
330
47
100
AcDbEntity
  8
1
  6
Continuous
 62
     7
100
AcDbLine
 10
187.3429673554094
 20
10.84673060906323
 30
0.0
 11
187.3429673554094
 21
14.15326939093666
 31
0.0
  0
LINE
  5
66
102
{ACAD_REACTORS
330
A7
102
}
330
47
100
AcDbEntity
  8
1
  6
Continuous
 62
     7
100
AcDbLine
 10
188.0096340220761
 20
11.0392519172633
 30
0.0
 11
188.0096340220761
 21
10.84673060906323
 31
0.0
  0
LINE
  5
67
102
{ACAD_REACTORS
330
A7
102
}
330
47
100
AcDbEntity
  8
1
  6
Continuous
 62
     7
100
AcDbLine
 10
188.0096340220761
 20
14.15326939093666
 30
0.0
 11
188.0096340220761
 21
11.0392519172633
 31
0.0
  0
LINE
  5
68
102
{ACAD_REACTORS
330
A8
102
}
330
47
100
AcDbEntity
  8
1
  6
Continuous
 62
     7
100
AcDbLine
 10
191.1763932042462
 20
8.44261746499581
 30
0.0
 11
189.0098190530831
 21
9.69256409066691
 31
0.0
  0
LINE
  5
69
102
{ACAD_REACTORS
330
A8
102
}
330
47
100
AcDbEntity
  8
1
  6
Continuous
 62
     7
100
AcDbLine
 10
189.3429673554094
 20
10.2700211480327
 30
0.0
 11
191.5095415065727
 21
9.0200745223616
 31
0.0
  0
LINE
  5
6A
102
{ACAD_REACTORS
330
A8
102
}
330
47
100
AcDbEntity
  8
1
  6
Continuous
 62
     7
100
AcDbLine
 10
189.3429673554094
 20
14.92250016016737
 30
0.0
 11
189.3429673554094
 21
10.2700211480327
 31
0.0
  0
LINE
  5
6B
102
{ACAD_REACTORS
330
A8
102
}
330
47
100
AcDbEntity
  8
1
  6
Continuous
 62
     7
100
AcDbLine
 10
188.6763006887428
 20
10.27002114803258
 30
0.0
 11
188.6763006887428
 21
14.92250016016737
 31
0.0
  0
LINE
  5
6C
102
{ACAD_REACTORS
330
A9
102
}
330
47
100
AcDbEntity
  8
1
  6
Continuous
 62
     7
100
AcDbLine
 10
192.8485336717861
 20
15.86370041827229
 30
0.0
 11
191.6763006887428
 21
13.83333333333326
 31
0.0
  0
LINE
  5
6D
102
{ACAD_REACTORS
330
A9
102
}
330
47
100
AcDbEntity
  8
1
  6
Continuous
 62
     7
100
AcDbLine
 10
193.3429673554094
 20
9.3082690706018
 30
0.0
 11
193.3429673554094
 21
15.73121731203457
 31
0.0
  0
LINE
  5
6E
102
{ACAD_REACTORS
330
A9
102
}
330
47
100
AcDbEntity
  8
1
  6
Continuous
 62
     7
100
AcDbLine
 10
192.6763006887428
 20
12.5
 30
0.0
 11
192.6763006887428
 21
9.3082690706018
 31
0.0
  0
LINE
  5
6F
102
{ACAD_REACTORS
330
A9
102
}
330
47
100
AcDbEntity
  8
1
  6
Continuous
 62
     7
100
AcDbLine
 10
190.6763006887428
 20
10.84758507263291
 30
0.0
 11
190.6763006887428
 21
12.5
 31
0.0
  0
LINE
  5
70
102
{ACAD_REACTORS
330
A9
102
}
330
47
100
AcDbEntity
  8
1
  6
Continuous
 62
     7
100
AcDbLine
 10
190.0096340220761
 20
12.5
 30
0.0
 11
190.0096340220761
 21
10.84758507263291
 31
0.0
  0
LINE
  5
71
102
{ACAD_REACTORS
330
A9
102
}
330
47
100
AcDbEntity
  8
1
  6
Continuous
 62
     7
100
AcDbLine
 10
190.5040677056995
 20
15.86370041827229
 30
0.0
 11
191.6763006887428
 21
13.83333333333326
 31
0.0
  0
LINE
  5
72
102
{ACAD_REACTORS
330
A9
102
}
330
47
100
AcDbEntity
  8
1
  6
Continuous
 62
     7
100
AcDbLine
 10
190.0096340220761
 20
12.5
 30
0.0
 11
190.0096340220761
 21
15.73121731203457
 31
0.0
  0
LINE
  5
73
330
47
100
AcDbEntity
  8
1
  6
Continuous
 62
     7
100
AcDbLine
 10
191.6763006887428
 20
7.5
 30
0.0
 11
183.2598654136012
 21
12.35563573565855
 31
0.0
  0
LINE
  5
74
330
47
100
AcDbEntity
  8
1
  6
Continuous
 62
     7
100
AcDbLine
 10
200.0927359638843
 20
12.35563573565855
 30
0.0
 11
191.6763006887428
 21
7.5
 31
0.0
  0
LINE
  5
75
330
47
100
AcDbEntity
  8
1
  6
Continuous
 62
     7
100
AcDbLine
 10
191.6763006887428
 20
17.5
 30
0.0
 11
200.0927359638843
 21
12.64436426434133
 31
0.0
  0
LINE
  5
76
330
47
100
AcDbEntity
  8
1
  6
Continuous
 62
     7
100
AcDbLine
 10
183.2598654136012
 20
12.64436426434133
 30
0.0
 11
191.6763006887428
 21
17.5
 31
0.0
  0
LINE
  5
77
102
{ACAD_REACTORS
330
A9
102
}
330
47
100
AcDbEntity
  8
1
  6
Continuous
 62
     7
100
AcDbLine
 10
190.6763006887428
 20
14.23205080756884
 30
0.0
 11
190.6763006887428
 21
12.5
 31
0.0
  0
LINE
  5
78
102
{ACAD_REACTORS
330
A9
102
}
330
47
100
AcDbEntity
  8
1
  6
Continuous
 62
     7
100
AcDbLine
 10
191.5319631214453
 20
12.75
 30
0.0
 11
190.6763006887428
 21
14.23205080756884
 31
0.0
  0
LINE
  5
79
102
{ACAD_REACTORS
330
A9
102
}
330
47
100
AcDbEntity
  8
1
  6
Continuous
 62
     7
100
AcDbLine
 10
192.6763006887428
 20
14.23205080756884
 30
0.0
 11
191.8206382560402
 21
12.75
 31
0.0
  0
LINE
  5
7A
102
{ACAD_REACTORS
330
A9
102
}
330
47
100
AcDbEntity
  8
1
  6
Continuous
 62
     7
100
AcDbLine
 10
192.6763006887428
 20
12.5
 30
0.0
 11
192.6763006887428
 21
14.23205080756884
 31
0.0
  0
LINE
  5
7B
102
{ACAD_REACTORS
330
A6
102
}
330
47
100
AcDbEntity
  8
1
  6
Continuous
 62
     7
100
AcDbLine
 10
194.0096340220762
 20
10.07749983983263
 30
0.0
 11
194.0096340220762
 21
14.92250016016737
 31
0.0
  0
LINE
  5
7C
330
47
100
AcDbEntity
  8
1
  6
Continuous
 62
     7
100
AcDbLine
 10
21.00000000000011
 20
292.0000000000001
 30
0.0
 11
21.00000000000011
 21
4.99999999999989
 31
0.0
  0
LINE
  5
7D
330
47
100
AcDbEntity
  8
1
  6
Continuous
 62
     7
100
AcDbLine
 10
205.0000000000001
 20
292.0000000000001
 30
0.0
 11
21.00000000000011
 21
292.0000000000001
 31
0.0
  0
LINE
  5
7E
330
47
100
AcDbEntity
  8
1
  6
Continuous
 62
     7
100
AcDbLine
 10
205.0000000000001
 20
4.99999999999989
 30
0.0
 11
205.0000000000001
 21
292.0000000000001
 31
0.0
  0
LINE
  5
7F
330
47
100
AcDbEntity
  8
1
  6
Continuous
 62
     7
100
AcDbLine
 10
210.0000000000001
 20
297.0000000000001
 30
0.0
 11
0.0
 21
297.0000000000001
 31
0.0
  0
LINE
  5
80
330
47
100
AcDbEntity
  8
1
  6
Continuous
 62
     7
100
AcDbLine
 10
0.0
 20
297.0000000000001
 30
0.0
 11
0.0
 21
0.0
 31
0.0
  0
LINE
  5
81
330
47
100
AcDbEntity
  8
1
  6
Continuous
 62
     7
100
AcDbLine
 10
0.0
 20
0.0
 30
0.0
 11
210.0000000000001
 21
0.0
 31
0.0
  0
LINE
  5
82
330
47
100
AcDbEntity
  8
1
  6
Continuous
 62
     7
100
AcDbLine
 10
210.0000000000001
 20
0.0
 30
0.0
 11
210.0000000000001
 21
297.0000000000001
 31
0.0
  0
LINE
  5
83
330
47
100
AcDbEntity
  8
1
  6
Continuous
 62
     7
100
AcDbLine
 10
0.0
 20
148.4999999999998
 30
0.0
 11
15.0
 21
148.4999999999998
 31
0.0
  0
LINE
  5
84
330
47
100
AcDbEntity
  8
1
  6
Continuous
 62
     7
100
AcDbLine
 10
21.00000000000011
 20
9.99999999999989
 30
0.0
 11
51.00000000000011
 21
9.99999999999989
 31
0.0
  0
LINE
  5
85
330
47
100
AcDbEntity
  8
1
  6
Continuous
 62
     7
100
AcDbLine
 10
51.00000000000011
 20
20.0
 30
0.0
 11
51.00000000000011
 21
5.0
 31
0.0
  0
LINE
  5
86
330
47
100
AcDbEntity
  8
1
  6
Continuous
 62
     7
100
AcDbLine
 10
178.3526013774855
 20
20.0
 30
0.0
 11
178.3526013774855
 21
5.0
 31
0.0
  0
LINE
  5
87
330
47
100
AcDbEntity
  8
1
  6
Continuous
 62
     7
100
AcDbLine
 10
161.0000000000001
 20
20.0
 30
0.0
 11
161.0000000000001
 21
5.0
 31
0.0
  0
LINE
  5
88
330
47
100
AcDbEntity
  8
1
  6
Continuous
 62
     7
100
AcDbLine
 10
21.00000000000011
 20
20.0
 30
0.0
 11
21.00000000000011
 21
4.99999999999989
 31
0.0
  0
LINE
  5
89
330
47
100
AcDbEntity
  8
1
  6
Continuous
 62
     7
100
AcDbLine
 10
21.00000000000011
 20
14.99999999999989
 30
0.0
 11
51.00000000000011
 21
14.99999999999989
 31
0.0
  0
ARC
  5
8A
102
{ACAD_REACTORS
330
A6
102
}
330
47
100
AcDbEntity
  8
1
  6
Continuous
 62
     7
100
AcDbCircle
 10
195.6763006887428
 20
10.84673060906323
 30
0.0
 40
0.3333333333333172
100
AcDbArc
 50
299.9816393688334
 51
119.9816393688365
  0
ARC
  5
8B
102
{ACAD_REACTORS
330
A6
102
}
330
47
100
AcDbEntity
  8
1
  6
Continuous
 62
     7
100
AcDbCircle
 10
195.6763006887428
 20
12.5
 30
0.0
 40
0.3333333333333695
100
AcDbArc
 50
270.0
 51
90.0
  0
ARC
  5
8C
102
{ACAD_REACTORS
330
A6
102
}
330
47
100
AcDbEntity
  8
1
  6
Continuous
 62
     7
100
AcDbCircle
 10
195.6763006887428
 20
14.15326939093666
 30
0.0
 40
0.3333333333333613
100
AcDbArc
 50
240.018360631154
 51
60.01836063115638
  0
ARC
  5
8D
102
{ACAD_REACTORS
330
A7
102
}
330
47
100
AcDbEntity
  8
1
  6
Continuous
 62
     7
100
AcDbCircle
 10
187.6763006887428
 20
10.84673060906323
 30
0.0
 40
0.3333333333333997
100
AcDbArc
 50
180.0
 51
0.0
  0
ARC
  5
8E
102
{ACAD_REACTORS
330
A7
102
}
330
47
100
AcDbEntity
  8
1
  6
Continuous
 62
     7
100
AcDbCircle
 10
187.6763006887428
 20
14.15326939093666
 30
0.0
 40
0.3333333333333144
100
AcDbArc
 50
0.0
 51
180.0
  0
ARC
  5
8F
102
{ACAD_REACTORS
330
A8
102
}
330
47
100
AcDbEntity
  8
1
  6
Continuous
 62
     7
100
AcDbCircle
 10
191.3429673554094
 20
8.7313459936787
 30
0.0
 40
0.3333333333333567
100
AcDbArc
 50
240.0183606311536
 51
60.01836063113668
  0
ARC
  5
90
102
{ACAD_REACTORS
330
A8
102
}
330
47
100
AcDbEntity
  8
1
  6
Continuous
 62
     7
100
AcDbCircle
 10
189.0096340220761
 20
14.92250016016737
 30
0.0
 40
0.333333333333286
100
AcDbArc
 50
0.0
 51
180.0
  0
ARC
  5
91
102
{ACAD_REACTORS
330
A9
102
}
330
47
100
AcDbEntity
  8
1
  6
Continuous
 62
     7
100
AcDbCircle
 10
193.0780011429341
 20
15.73121731203457
 30
0.0
 40
0.2649662124752865
100
AcDbArc
 50
0.0
 51
149.9999999999716
  0
ARC
  5
92
102
{ACAD_REACTORS
330
A9
102
}
330
47
100
AcDbEntity
  8
1
  6
Continuous
 62
     7
100
AcDbCircle
 10
193.0096340220762
 20
9.3082690706018
 30
0.0
 40
0.3333333333333997
100
AcDbArc
 50
180.0
 51
0.0
  0
ARC
  5
93
102
{ACAD_REACTORS
330
A9
102
}
330
47
100
AcDbEntity
  8
1
  6
Continuous
 62
     7
100
AcDbCircle
 10
190.3429673554094
 20
10.84758507263291
 30
0.0
 40
0.333333333333286
100
AcDbArc
 50
180.0
 51
0.0
  0
ARC
  5
94
102
{ACAD_REACTORS
330
A9
102
}
330
47
100
AcDbEntity
  8
1
  6
Continuous
 62
     7
100
AcDbCircle
 10
190.2746002345514
 20
15.73121731203457
 30
0.0
 40
0.2649662124752854
100
AcDbArc
 50
30.00000000001921
 51
180.0
  0
ARC
  5
95
102
{ACAD_REACTORS
330
A6
102
}
330
47
100
AcDbEntity
  8
1
  6
Continuous
 62
     7
100
AcDbCircle
 10
194.3429673554094
 20
10.07749983983263
 30
0.0
 40
0.3333333333332007
100
AcDbArc
 50
180.0
 51
299.981639368863
  0
ARC
  5
96
102
{ACAD_REACTORS
330
A6
102
}
330
47
100
AcDbEntity
  8
1
  6
Continuous
 62
     7
100
AcDbCircle
 10
194.3429673554094
 20
14.92250016016737
 30
0.0
 40
0.3333333333334166
100
AcDbArc
 50
60.01836063113698
 51
180.0
  0
ARC
  5
97
330
47
100
AcDbEntity
  8
1
  6
Continuous
 62
     7
100
AcDbCircle
 10
200.0094488883027
 20
12.5
 30
0.0
 40
0.166666666666687
100
AcDbArc
 50
299.9816393688503
 51
60.01836063112923
  0
ARC
  5
98
330
47
100
AcDbEntity
  8
1
  6
Continuous
 62
     7
100
AcDbCircle
 10
183.3431524891829
 20
12.5
 30
0.0
 40
0.1666666666666265
100
AcDbArc
 50
119.9816393688962
 51
240.0183606311243
  0
ARC
  5
99
102
{ACAD_REACTORS
330
A8
102
}
330
47
100
AcDbEntity
  8
1
  6
Continuous
 62
     7
100
AcDbCircle
 10
189.3429673554094
 20
10.2700211480327
 30
0.0
 40
0.6666666666666003
100
AcDbArc
 50
180.0000000000104
 51
240.0183606311601
  0
ARC
  5
9A
102
{ACAD_REACTORS
330
A9
102
}
330
47
100
AcDbEntity
  8
1
  6
Continuous
 62
     7
100
AcDbCircle
 10
191.6763006887428
 20
12.83333333333326
 30
0.0
 40
0.166666666666709
100
AcDbArc
 50
209.9999999999622
 51
330.0000000000231
  0
MTEXT
  5
9C
330
47
100
AcDbEntity
  8
1
 62
     7
100
AcDbMText
 10
169.6763006887428
 20
10.06063942075605
 30
0.0
 40
4.5
 41
0.0
 71
     5
 72
     1
  1
1:1
  7
CONVERTER_11
 73
     1
 44
1.32052821128451
  0
MTEXT
  5
9D
330
47
100
AcDbEntity
  8
1
 62
     7
100
AcDbMText
 10
169.6763006887428
 20
16.26063942075598
 30
0.0
 40
3.0
 41
0.0
 71
     5
 72
     1
  1
Scale
  7
CONVERTER_11
 73
     1
 44
1.32052821128451
  0
MTEXT
  5
9E
330
47
100
AcDbEntity
  8
1
 62
     7
100
AcDbMText
 10
57.27630068874282
 20
12.5
 30
0.0
 40
4.5
 41
0.0
 71
     4
 72
     1
  1
CX 01 J8M\PMale modular, crimp, RJ45 Cat.6
  7
CONVERTER_11
 73
     1
 44
0.90036014405762
  0
MTEXT
  5
9F
330
47
100
AcDbEntity
  8
1
 62
     7
100
AcDbMText
 10
32.60000000000014
 20
7.49999999999989
 30
0.0
 40
3.0
 41
0.0
 71
     4
 72
     1
  1
Radice
  7
CONVERTER_11
 73
     1
 44
1.32052821128451
  0
MTEXT
  5
A0
330
47
100
AcDbEntity
  8
1
 62
     7
100
AcDbMText
 10
22.00000000000011
 20
7.49999999999989
 30
0.0
 40
3.0
 41
0.0
 71
     4
 72
     1
  1
Sign.
  7
CONVERTER_11
 73
     1
 44
1.32052821128451
  0
MTEXT
  5
A1
330
47
100
AcDbEntity
  8
1
 62
     7
100
AcDbMText
 10
32.60000000000014
 20
12.49999999999989
 30
0.0
 40
3.0
 41
0.0
 71
     4
 72
     1
  1
27/01/14
  7
CONVERTER_11
 73
     1
 44
1.32052821128451
  0
MTEXT
  5
A2
330
47
100
AcDbEntity
  8
1
 62
     7
100
AcDbMText
 10
22.00000000000011
 20
12.49999999999989
 30
0.0
 40
3.0
 41
0.0
 71
     4
 72
     1
  1
Date
  7
CONVERTER_11
 73
     1
 44
1.32052821128451
  0
MTEXT
  5
A3
330
47
100
AcDbEntity
  8
1
 62
     7
100
AcDbMText
 10
16.0
 20
151.4999999999998
 30
0.0
 40
4.0
 41
0.0
 71
     5
 72
     1
  1
Diritti riservati      All rights reserved
  7
CONVERTER_11
 11
0.0
 21
1.0
 31
0.0
 73
     1
 44
1.32052821128451
  0
MTEXT
  5
A5
330
47
100
AcDbEntity
  8
1
 62
     7
100
AcDbMText
 10
36.00000000000011
 20
17.49999999999994
 30
0.0
 40
2.5
 41
0.0
 71
     5
 72
     1
  1
dimensions in mm
  7
CONVERTER_12
 73
     1
 44
0.60024009603842
  0
HATCH
  5
A6
330
47
100
AcDbEntity
  8
1
  6
Continuous
 62
     7
100
AcDbHatch
 10
0.0
 20
0.0
 30
0.0
210
0.0
220
0.0
230
1.0
  2
SOLID
 70
     1
 71
     1
 91
        1
 92
        1
 93
       14
 72
     2
 10
194.3429673554094
 20
14.92250016016737
 40
0.3333333333334166
 50
60.01836063113698
 51
180.0
 73
     1
 72
     1
 10
194.0096340220762
 20
14.92250016016737
 11
194.0096340220762
 21
10.07749983983263
 72
     2
 10
194.3429673554094
 20
10.07749983983263
 40
0.3333333333332007
 50
180.0
 51
299.981639368863
 73
     1
 72
     1
 10
194.5095415065727
 20
9.78877131114973
 11
195.8428748399059
 21
10.55800208038033
 72
     2
 10
195.6763006887428
 20
10.84673060906323
 40
0.3333333333333172
 50
299.9816393688334
 51
479.9816393688365
 73
     1
 72
     1
 10
195.5097265375796
 20
11.13545913774624
 11
194.6763006887428
 21
10.65463653264794
 72
     1
 10
194.6763006887428
 20
10.65463653264794
 11
194.6763006887428
 21
12.16666666666663
 72
     1
 10
194.6763006887428
 20
12.16666666666663
 11
195.6763006887428
 21
12.16666666666663
 72
     2
 10
195.6763006887428
 20
12.5
 40
0.3333333333333695
 50
270.0
 51
450.0
 73
     1
 72
     1
 10
195.6763006887428
 20
12.83333333333326
 11
194.6763006887428
 21
12.83333333333326
 72
     1
 10
194.6763006887428
 20
12.83333333333326
 11
194.6763006887428
 21
14.34536346735195
 72
     1
 10
194.6763006887428
 20
14.34536346735195
 11
195.5097265375796
 21
13.86454086225376
 72
     2
 10
195.6763006887428
 20
14.15326939093666
 40
0.3333333333333613
 50
240.018360631154
 51
420.0183606311564
 73
     1
 72
     1
 10
195.8428748399059
 20
14.44199791961944
 11
194.5095415065727
 21
15.21122868885027
 97
       14
330
8C
330
63
330
62
330
61
330
8B
330
60
330
5F
330
5E
330
8A
330
5D
330
95
330
7B
330
96
330
64
 75
     0
 76
     1
 98
        1
 10
0.0
 20
0.0
  0
HATCH
  5
A7
330
47
100
AcDbEntity
  8
1
  6
Continuous
 62
     7
100
AcDbHatch
 10
0.0
 20
0.0
 30
0.0
210
0.0
220
0.0
230
1.0
  2
SOLID
 70
     1
 71
     1
 91
        1
 92
        1
 93
        5
 72
     2
 10
187.6763006887428
 20
14.15326939093666
 40
0.3333333333333144
 50
0.0
 51
180.0
 73
     1
 72
     1
 10
187.3429673554094
 20
14.15326939093666
 11
187.3429673554094
 21
10.84673060906323
 72
     2
 10
187.6763006887428
 20
10.84673060906323
 40
0.3333333333333997
 50
180.0
 51
360.0
 73
     1
 72
     1
 10
188.0096340220761
 20
10.84673060906323
 11
188.0096340220761
 21
11.0392519172633
 72
     1
 10
188.0096340220761
 20
11.0392519172633
 11
188.0096340220761
 21
14.15326939093666
 97
        5
330
8E
330
65
330
8D
330
66
330
67
 75
     0
 76
     1
 98
        1
 10
0.0
 20
0.0
  0
HATCH
  5
A8
330
47
100
AcDbEntity
  8
1
  6
Continuous
 62
     7
100
AcDbHatch
 10
0.0
 20
0.0
 30
0.0
210
0.0
220
0.0
230
1.0
  2
SOLID
 70
     1
 71
     1
 91
        1
 92
        1
 93
        7
 72
     2
 10
189.0096340220761
 20
14.92250016016737
 40
0.333333333333286
 50
0.0
 51
180.0
 73
     1
 72
     1
 10
188.6763006887428
 20
14.92250016016737
 11
188.6763006887428
 21
10.27002114803258
 72
     2
 10
189.3429673554094
 20
10.2700211480327
 40
0.6666666666666003
 50
180.0000000000104
 51
240.0183606311601
 73
     1
 72
     1
 10
189.0098190530831
 20
9.692564090666906
 11
191.1763932042462
 21
8.442617464995806
 72
     2
 10
191.3429673554094
 20
8.731345993678701
 40
0.3333333333333567
 50
240.0183606311536
 51
420.0183606311367
 73
     1
 72
     1
 10
191.5095415065727
 20
9.020074522361597
 11
189.3429673554094
 21
10.2700211480327
 72
     1
 10
189.3429673554094
 20
10.2700211480327
 11
189.3429673554094
 21
14.92250016016737
 97
        7
330
90
330
6B
330
99
330
68
330
8F
330
69
330
6A
 75
     0
 76
     1
 98
        1
 10
0.0
 20
0.0
  0
HATCH
  5
A9
330
47
100
AcDbEntity
  8
1
  6
Continuous
 62
     7
100
AcDbHatch
 10
0.0
 20
0.0
 30
0.0
210
0.0
220
0.0
230
1.0
  2
SOLID
 70
     1
 71
     1
 91
        1
 92
        1
 93
       16
 72
     2
 10
193.0780011429341
 20
15.73121731203457
 40
0.2649662124752865
 50
210.0000000000284
 51
360.0
 73
     0
 72
     1
 10
193.3429673554094
 20
15.73121731203457
 11
193.3429673554094
 21
9.308269070601796
 72
     2
 10
193.0096340220762
 20
9.308269070601796
 40
0.3333333333333997
 50
0.0
 51
180.0
 73
     0
 72
     1
 10
192.6763006887428
 20
9.308269070601796
 11
192.6763006887428
 21
12.5
 72
     1
 10
192.6763006887428
 20
12.5
 11
192.6763006887428
 21
14.23205080756884
 72
     1
 10
192.6763006887428
 20
14.23205080756884
 11
191.8206382560402
 21
12.75
 72
     2
 10
191.6763006887428
 20
12.83333333333326
 40
0.166666666666709
 50
29.99999999997686
 51
150.0000000000378
 73
     0
 72
     1
 10
191.5319631214453
 20
12.75
 11
190.6763006887428
 21
14.23205080756884
 72
     1
 10
190.6763006887428
 20
14.23205080756884
 11
190.6763006887428
 21
12.5
 72
     1
 10
190.6763006887428
 20
12.5
 11
190.6763006887428
 21
10.84758507263291
 72
     2
 10
190.3429673554094
 20
10.84758507263291
 40
0.333333333333286
 50
0.0
 51
180.0
 73
     0
 72
     1
 10
190.0096340220761
 20
10.84758507263291
 11
190.0096340220761
 21
12.5
 72
     1
 10
190.0096340220761
 20
12.5
 11
190.0096340220761
 21
15.73121731203457
 72
     2
 10
190.2746002345514
 20
15.73121731203457
 40
0.2649662124752854
 50
180.0
 51
329.9999999999808
 73
     0
 72
     1
 10
190.5040677056995
 20
15.86370041827229
 11
191.6763006887428
 21
13.83333333333326
 72
     1
 10
191.6763006887428
 20
13.83333333333326
 11
192.8485336717861
 21
15.86370041827229
 97
       16
330
71
330
94
330
72
330
70
330
93
330
6F
330
77
330
78
330
9A
330
79
330
7A
330
6E
330
92
330
6D
330
91
330
6C
 75
     0
 76
     1
 98
        1
 10
0.0
 20
0.0
  0
ENDBLK
  5
49
330
47
100
AcDbEntity
  8
0
100
AcDbBlockEnd
  0
BLOCK
  5
4C
330
4A
100
AcDbEntity
  8
0
100
AcDbBlockBegin
  2
A4
 70
     0
 10
210.0000000000001
 20
0.0
 30
0.0
  3
A4
  1

  0
INSERT
  5
4B
330
4A
100
AcDbEntity
  8
1
100
AcDbBlockReference
  2
_formato_A4
 10
210.0000000000001
 20
0.0
 30
0.0
  0
ENDBLK
  5
4D
330
4A
100
AcDbEntity
  8
0
100
AcDbBlockEnd
  0
BLOCK
  5
2EE
330
2E6
100
AcDbEntity
  8
0
100
AcDbBlockBegin
  2
*D3
 70
     1
 10
0.0
 20
0.0
 30
0.0
  3
*D3
  1

  0
LINE
  5
2E7
330
2E6
100
AcDbEntity
  8
1
  6
Continuous
 62
     2
100
AcDbLine
 10
169.4176090852089
 20
135.9624355689425
 30
0.0
 11
169.4176090852089
 21
191.6624355689422
 31
0.0
  0
LINE
  5
2E8
330
2E6
100
AcDbEntity
  8
1
  6
Continuous
 62
     2
100
AcDbLine
 10
142.8676090852088
 20
191.6624355689422
 30
0.0
 11
170.4176090852089
 21
191.6624355689422
 31
0.0
  0
LINE
  5
2E9
330
2E6
100
AcDbEntity
  8
1
  6
Continuous
 62
     2
100
AcDbLine
 10
152.9176090852094
 20
135.9624355689425
 30
0.0
 11
170.4176090852089
 21
135.9624355689425
 31
0.0
  0
SOLID
  5
2EA
330
2E6
100
AcDbEntity
  8
1
 62
     2
100
AcDbTrace
 10
169.0226515924467
 20
138.9624355689425
 30
0.0
 11
169.8125665779711
 21
138.9624355689425
 31
0.0
 12
169.4176090852089
 22
135.9624355689425
 32
0.0
 13
169.4176090852089
 23
135.9624355689425
 33
0.0
  0
SOLID
  5
2EB
330
2E6
100
AcDbEntity
  8
1
 62
     2
100
AcDbTrace
 10
169.8125665779711
 20
188.6624355689422
 30
0.0
 11
169.0226515924467
 21
188.6624355689422
 31
0.0
 12
169.4176090852089
 22
191.6624355689422
 32
0.0
 13
169.4176090852089
 23
191.6624355689422
 33
0.0
  0
MTEXT
  5
2ED
330
2E6
100
AcDbEntity
  8
1
 62
     4
100
AcDbMText
 10
167.1176090852089
 20
159.6874355689423
 30
0.0
 40
3.0
 41
0.0
 71
     7
 72
     1
  1
55,7
  7
CONVERTER_13
 11
0.0
 21
1.0
 31
0.0
 73
     1
 44
0.60024009603842
  0
ENDBLK
  5
2EF
330
2E6
100
AcDbEntity
  8
0
100
AcDbBlockEnd
  0
BLOCK
  5
2F9
330
2F2
100
AcDbEntity
  8
0
100
AcDbBlockBegin
  2
*D4
 70
     1
 10
0.0
 20
0.0
 30
0.0
  3
*D4
  1

  0
LINE
  5
2F3
330
2F2
100
AcDbEntity
  8
1
  6
Continuous
 62
     2
100
AcDbLine
 10
122.4176090852089
 20
201.6624355689422
 30
0.0
 11
152.4176090852093
 21
201.6624355689422
 31
0.0
  0
LINE
  5
2F4
330
2F2
100
AcDbEntity
  8
1
  6
Continuous
 62
     2
100
AcDbLine
 10
152.4176090852093
 20
170.6624355689423
 30
0.0
 11
152.4176090852093
 21
202.6624355689422
 31
0.0
  0
LINE
  5
2F5
330
2F2
100
AcDbEntity
  8
1
  6
Continuous
 62
     2
100
AcDbLine
 10
122.4176090852089
 20
170.6624355689422
 30
0.0
 11
122.4176090852089
 21
202.6624355689422
 31
0.0
  0
SOLID
  5
2F6
330
2F2
100
AcDbEntity
  8
1
 62
     2
100
AcDbTrace
 10
125.4176090852089
 20
202.0573930617044
 30
0.0
 11
125.4176090852089
 21
201.26747807618
 31
0.0
 12
122.4176090852089
 22
201.6624355689422
 32
0.0
 13
122.4176090852089
 23
201.6624355689422
 33
0.0
  0
SOLID
  5
2F7
330
2F2
100
AcDbEntity
  8
1
 62
     2
100
AcDbTrace
 10
149.4176090852093
 20
201.26747807618
 30
0.0
 11
149.4176090852093
 21
202.0573930617044
 31
0.0
 12
152.4176090852093
 22
201.6624355689422
 32
0.0
 13
152.4176090852093
 23
201.6624355689422
 33
0.0
  0
MTEXT
  5
2F8
330
2F2
100
AcDbEntity
  8
1
 62
     4
100
AcDbMText
 10
135.1676090852091
 20
203.6624355689422
 30
0.0
 40
3.0
 41
0.0
 71
     7
 72
     1
  1
30
  7
CONVERTER_13
 11
0.9999999999970619
 21
2.424068405545306E-6
 31
0.0
 73
     1
 44
0.60024009603842
  0
ENDBLK
  5
2FA
330
2F2
100
AcDbEntity
  8
0
100
AcDbBlockEnd
  0
BLOCK
  5
304
330
2FD
100
AcDbEntity
  8
0
100
AcDbBlockBegin
  2
*D5
 70
     1
 10
0.0
 20
0.0
 30
0.0
  3
*D5
  1

  0
LINE
  5
2FE
330
2FD
100
AcDbEntity
  8
1
  6
Continuous
 62
     2
100
AcDbLine
 10
69.41760925223544
 20
201.6624355689422
 30
0.0
 11
84.11760925223543
 21
201.6624355689422
 31
0.0
  0
LINE
  5
2FF
330
2FD
100
AcDbEntity
  8
1
  6
Continuous
 62
     2
100
AcDbLine
 10
84.11760925223543
 20
170.6624355689423
 30
0.0
 11
84.11760925223543
 21
202.6624355689422
 31
0.0
  0
LINE
  5
300
330
2FD
100
AcDbEntity
  8
1
  6
Continuous
 62
     2
100
AcDbLine
 10
69.41760925223544
 20
170.6624355689423
 30
0.0
 11
69.41760925223544
 21
202.6624355689422
 31
0.0
  0
SOLID
  5
301
330
2FD
100
AcDbEntity
  8
1
 62
     2
100
AcDbTrace
 10
72.41760925223544
 20
202.0573930617044
 30
0.0
 11
72.41760925223544
 21
201.26747807618
 31
0.0
 12
69.41760925223544
 22
201.6624355689422
 32
0.0
 13
69.41760925223544
 23
201.6624355689422
 33
0.0
  0
SOLID
  5
302
330
2FD
100
AcDbEntity
  8
1
 62
     2
100
AcDbTrace
 10
81.11760925223543
 20
201.26747807618
 30
0.0
 11
81.11760925223543
 21
202.0573930617044
 31
0.0
 12
84.11760925223543
 22
201.6624355689422
 32
0.0
 13
84.11760925223543
 23
201.6624355689422
 33
0.0
  0
MTEXT
  5
303
330
2FD
100
AcDbEntity
  8
1
 62
     4
100
AcDbMText
 10
73.09260925223543
 20
203.9624355689422
 30
0.0
 40
3.0
 41
0.0
 71
     7
 72
     1
  1
14,7
  7
CONVERTER_13
 11
0.9999999999970619
 21
2.424068405545306E-6
 31
0.0
 73
     1
 44
0.60024009603842
  0
ENDBLK
  5
305
330
2FD
100
AcDbEntity
  8
0
100
AcDbBlockEnd
  0
ENDSEC
  0
SECTION
  2
ENTITIES
  0
INSERT
  5
4E
330
1F
100
AcDbEntity
  8
0
100
AcDbBlockReference
  2
A4
 10
210.0000000000001
 20
0.0
 30
0.0
  0
LINE
  5
AA
330
1F
100
AcDbEntity
  8
0
  6
Continuous
 62
     7
100
AcDbLine
 10
84.11760925223543
 20
99.81243487897075
 30
0.0
 11
84.11760925223543
 21
82.51243487897074
 31
0.0
  0
LINE
  5
AB
330
1F
100
AcDbEntity
  8
0
  6
Continuous
 62
     7
100
AcDbLine
 10
80.86760925223594
 20
108.1624348789707
 30
0.0
 11
72.66760925223595
 21
108.1624348789707
 31
0.0
  0
LINE
  5
AC
330
1F
100
AcDbEntity
  8
0
  6
Continuous
 62
     7
100
AcDbLine
 10
71.46760925223545
 20
106.1624348789708
 30
0.0
 11
72.66760925223595
 21
106.1624348789709
 31
0.0
  0
LINE
  5
AD
330
1F
100
AcDbEntity
  8
0
  6
Continuous
 62
     7
100
AcDbLine
 10
69.41760925223544
 20
106.1624348789708
 30
0.0
 11
71.46760925223545
 21
106.1624348789708
 31
0.0
  0
LINE
  5
AE
330
1F
100
AcDbEntity
  8
0
  6
Continuous
 62
     7
100
AcDbLine
 10
80.86760925223594
 20
106.1624348789709
 30
0.0
 11
82.06760925223564
 21
106.1624348789708
 31
0.0
  0
LINE
  5
AF
330
1F
100
AcDbEntity
  8
0
  6
Continuous
 62
     7
100
AcDbLine
 10
83.08516744110047
 20
95.3624348789684
 30
0.0
 11
83.08516744110047
 21
86.96243487897215
 31
0.0
  0
LINE
  5
B0
330
1F
100
AcDbEntity
  8
0
  6
Continuous
 62
     7
100
AcDbLine
 10
83.08516744110047
 20
100.8124348789709
 30
0.0
 11
83.08516744110047
 21
102.9124348789709
 31
0.0
  0
LINE
  5
B1
330
1F
100
AcDbEntity
  8
0
  6
Continuous
 62
     7
100
AcDbLine
 10
83.08516744110047
 20
81.51243487897091
 30
0.0
 11
83.08516744110047
 21
79.41243487897088
 31
0.0
  0
LINE
  5
B2
330
1F
100
AcDbEntity
  8
0
  6
Continuous
 62
     7
100
AcDbLine
 10
82.06760925223564
 20
106.1624348789708
 30
0.0
 11
84.11760925223543
 21
106.1624348789708
 31
0.0
  0
LINE
  5
B3
330
1F
100
AcDbEntity
  8
0
  6
Continuous
 62
     7
100
AcDbLine
 10
83.08516744110047
 20
100.8124348789709
 30
0.0
 11
83.08516744110047
 21
99.1124348789709
 31
0.0
  0
LINE
  5
B4
330
1F
100
AcDbEntity
  8
0
  6
Continuous
 62
     7
100
AcDbLine
 10
83.08516744110047
 20
83.2124348789709
 30
0.0
 11
83.08516744110047
 21
81.51243487897091
 31
0.0
  0
LINE
  5
B5
330
1F
100
AcDbEntity
  8
0
  6
Continuous
 62
     7
100
AcDbLine
 10
82.06760925223564
 20
104.1624348789708
 30
0.0
 11
84.11760925223543
 21
104.1624348789708
 31
0.0
  0
LINE
  5
B6
330
1F
100
AcDbEntity
  8
0
  6
Continuous
 62
     7
100
AcDbLine
 10
82.06760925223615
 20
78.16243487897049
 30
0.0
 11
84.11760925223543
 21
78.16243487897049
 31
0.0
  0
LINE
  5
B7
330
1F
100
AcDbEntity
  8
0
  6
Continuous
 62
     7
100
AcDbLine
 10
83.08516744110047
 20
99.1124348789709
 30
0.0
 11
83.08516744110047
 21
95.51243487897023
 31
0.0
  0
LINE
  5
B8
330
1F
100
AcDbEntity
  8
0
  6
Continuous
 62
     7
100
AcDbLine
 10
83.08516744110047
 20
86.81243487897024
 30
0.0
 11
83.08516744110047
 21
83.2124348789709
 31
0.0
  0
LINE
  5
B9
330
1F
100
AcDbEntity
  8
0
  6
Continuous
 62
     7
100
AcDbLine
 10
83.08516744110047
 20
86.81243487897024
 30
0.0
 11
83.08516744110047
 21
86.96243487897215
 31
0.0
  0
LINE
  5
BA
330
1F
100
AcDbEntity
  8
0
  6
Continuous
 62
     7
100
AcDbLine
 10
83.08516744110047
 20
95.51243487897023
 30
0.0
 11
83.08516744110047
 21
95.3624348789684
 31
0.0
  0
LINE
  5
BB
330
1F
100
AcDbEntity
  8
0
  6
Continuous
 62
     7
100
AcDbLine
 10
84.11760925223543
 20
81.51243487897074
 30
0.0
 11
84.11760925223543
 21
80.81243487897075
 31
0.0
  0
LINE
  5
BC
330
1F
100
AcDbEntity
  8
0
  6
Continuous
 62
     7
100
AcDbLine
 10
84.11760925223543
 20
79.81243487897075
 30
0.0
 11
84.11760925223543
 21
78.16243487897049
 31
0.0
  0
LINE
  5
BD
330
1F
100
AcDbEntity
  8
0
  6
Continuous
 62
     7
100
AcDbLine
 10
84.11760925223543
 20
79.81243487897075
 30
0.0
 11
85.01760925223546
 21
79.81243487897075
 31
0.0
  0
LINE
  5
BE
330
1F
100
AcDbEntity
  8
0
  6
Continuous
 62
     7
100
AcDbLine
 10
85.01760925223546
 20
80.81243487897075
 30
0.0
 11
84.11760925223543
 21
80.81243487897075
 31
0.0
  0
LINE
  5
BF
330
1F
100
AcDbEntity
  8
0
  6
Continuous
 62
     7
100
AcDbLine
 10
85.01760925223546
 20
81.51243487897074
 30
0.0
 11
84.11760925223543
 21
81.51243487897074
 31
0.0
  0
LINE
  5
C0
330
1F
100
AcDbEntity
  8
0
  6
Continuous
 62
     7
100
AcDbLine
 10
84.11760925223543
 20
102.5124348789707
 30
0.0
 11
85.01760925223546
 21
102.5124348789707
 31
0.0
  0
LINE
  5
C1
330
1F
100
AcDbEntity
  8
0
  6
Continuous
 62
     7
100
AcDbLine
 10
85.01760925223546
 20
101.5124348789707
 30
0.0
 11
84.11760925223543
 21
101.5124348789707
 31
0.0
  0
LINE
  5
C2
330
1F
100
AcDbEntity
  8
0
  6
Continuous
 62
     7
100
AcDbLine
 10
84.11760925223543
 20
100.8124348789708
 30
0.0
 11
85.01760925223546
 21
100.8124348789708
 31
0.0
  0
LINE
  5
C3
330
1F
100
AcDbEntity
  8
0
  6
Continuous
 62
     7
100
AcDbLine
 10
84.11760925223543
 20
82.51243487897074
 30
0.0
 11
85.01760925223546
 21
82.51243487897074
 31
0.0
  0
LINE
  5
C4
330
1F
100
AcDbEntity
  8
0
  6
Continuous
 62
     7
100
AcDbLine
 10
85.01760925223546
 20
99.81243487897075
 30
0.0
 11
84.11760925223543
 21
99.81243487897075
 31
0.0
  0
LINE
  5
C5
330
1F
100
AcDbEntity
  8
0
  6
Continuous
 62
     7
100
AcDbLine
 10
85.01760925223546
 20
102.5124348789707
 30
0.0
 11
85.01760925223546
 21
101.5124348789707
 31
0.0
  0
LINE
  5
C6
330
1F
100
AcDbEntity
  8
0
  6
Continuous
 62
     7
100
AcDbLine
 10
85.01760925223546
 20
100.8124348789708
 30
0.0
 11
85.01760925223546
 21
99.81243487897075
 31
0.0
  0
LINE
  5
C7
330
1F
100
AcDbEntity
  8
0
  6
Continuous
 62
     7
100
AcDbLine
 10
85.01760925223546
 20
79.81243487897075
 30
0.0
 11
85.01760925223546
 21
80.81243487897075
 31
0.0
  0
LINE
  5
C8
330
1F
100
AcDbEntity
  8
0
  6
Continuous
 62
     7
100
AcDbLine
 10
85.01760925223546
 20
82.51243487897074
 30
0.0
 11
85.01760925223546
 21
81.51243487897074
 31
0.0
  0
LINE
  5
C9
330
1F
100
AcDbEntity
  8
0
  6
Continuous
 62
     7
100
AcDbLine
 10
84.11760925223543
 20
104.1624348789708
 30
0.0
 11
84.11760925223543
 21
102.5124348789707
 31
0.0
  0
LINE
  5
CA
330
1F
100
AcDbEntity
  8
0
  6
Continuous
 62
     7
100
AcDbLine
 10
84.11760925223543
 20
101.5124348789707
 30
0.0
 11
84.11760925223543
 21
100.8124348789708
 31
0.0
  0
LINE
  5
CB
330
1F
100
AcDbEntity
  8
0
  6
Continuous
 62
     7
100
AcDbLine
 10
84.11760925223543
 20
76.16243487897037
 30
0.0
 11
82.06760925223564
 21
76.1624348789704
 31
0.0
  0
LINE
  5
CC
330
1F
100
AcDbEntity
  8
0
  6
Continuous
 62
     7
100
AcDbLine
 10
84.11760925223543
 20
76.16243487897037
 30
0.0
 11
84.11760925223543
 21
78.16243487897049
 31
0.0
  0
LINE
  5
CD
330
1F
100
AcDbEntity
  8
0
  6
Continuous
 62
     7
100
AcDbLine
 10
80.16516744110028
 20
95.3624348789684
 30
0.0
 11
80.16516744110028
 21
86.96243487897215
 31
0.0
  0
LINE
  5
CE
330
1F
100
AcDbEntity
  8
0
  6
Continuous
 62
     7
100
AcDbLine
 10
73.36516744110027
 20
95.3624348789684
 30
0.0
 11
73.36516744110027
 21
94.33743487897053
 31
0.0
  0
LINE
  5
CF
330
1F
100
AcDbEntity
  8
0
  6
Continuous
 62
     7
100
AcDbLine
 10
73.36516744110027
 20
87.98743487897053
 30
0.0
 11
73.36516744110027
 21
86.96243487897215
 31
0.0
  0
LINE
  5
D0
330
1F
100
AcDbEntity
  8
0
  6
Continuous
 62
     7
100
AcDbLine
 10
69.41760925223544
 20
99.16243487897074
 30
0.0
 11
69.41760925223544
 21
103.1624348789709
 31
0.0
  0
LINE
  5
D1
330
1F
100
AcDbEntity
  8
0
  6
Continuous
 62
     7
100
AcDbLine
 10
70.41760925223583
 20
103.1624348789709
 30
0.0
 11
69.41760925223544
 21
103.1624348789709
 31
0.0
  0
LINE
  5
D2
330
1F
100
AcDbEntity
  8
0
  6
Continuous
 62
     7
100
AcDbLine
 10
69.41760925223544
 20
103.1624348789709
 30
0.0
 11
69.41760925223544
 21
104.1624348789708
 31
0.0
  0
LINE
  5
D3
330
1F
100
AcDbEntity
  8
0
  6
Continuous
 62
     7
100
AcDbLine
 10
71.46760925223545
 20
104.1624348789708
 30
0.0
 11
69.41760925223544
 21
104.1624348789708
 31
0.0
  0
LINE
  5
D4
330
1F
100
AcDbEntity
  8
0
  6
Continuous
 62
     7
100
AcDbLine
 10
71.46760925223545
 20
104.1624348789708
 30
0.0
 11
71.46760925223545
 21
106.1624348789708
 31
0.0
  0
LINE
  5
D5
330
1F
100
AcDbEntity
  8
0
  6
Continuous
 62
     7
100
AcDbLine
 10
69.41760925223544
 20
104.1624348789708
 30
0.0
 11
69.41760925223544
 21
106.1624348789708
 31
0.0
  0
LINE
  5
D6
330
1F
100
AcDbEntity
  8
0
  6
Continuous
 62
     7
100
AcDbLine
 10
72.66760925223595
 20
108.1624348789707
 30
0.0
 11
72.66760925223595
 21
106.1624348789709
 31
0.0
  0
LINE
  5
D7
330
1F
100
AcDbEntity
  8
0
  6
Continuous
 62
     7
100
AcDbLine
 10
72.08516744109899
 20
102.9124348789709
 30
0.0
 11
72.08516744109899
 21
100.8124348789709
 31
0.0
  0
LINE
  5
D8
330
1F
100
AcDbEntity
  8
0
  6
Continuous
 62
     7
100
AcDbLine
 10
69.41760925223544
 20
99.16243487897074
 30
0.0
 11
69.41760925223544
 21
83.16243487897074
 31
0.0
  0
LINE
  5
D9
330
1F
100
AcDbEntity
  8
0
  6
Continuous
 62
     7
100
AcDbLine
 10
72.43516744110026
 20
87.98743487897053
 30
0.0
 11
73.36516744110027
 21
87.98743487897053
 31
0.0
  0
LINE
  5
DA
330
1F
100
AcDbEntity
  8
0
  6
Continuous
 62
     7
100
AcDbLine
 10
71.91760925223583
 20
83.2124348789709
 30
0.0
 11
71.48516744110027
 21
83.21243487897084
 31
0.0
  0
LINE
  5
DB
330
1F
100
AcDbEntity
  8
0
  6
Continuous
 62
     7
100
AcDbLine
 10
72.08516744109899
 20
83.21243487897095
 30
0.0
 11
71.91760925223583
 21
83.2124348789709
 31
0.0
  0
LINE
  5
DC
330
1F
100
AcDbEntity
  8
0
  6
Continuous
 62
     7
100
AcDbLine
 10
72.43516744110026
 20
83.21243487897084
 30
0.0
 11
72.08516744109899
 21
83.21243487897095
 31
0.0
  0
LINE
  5
DD
330
1F
100
AcDbEntity
  8
0
  6
Continuous
 62
     7
100
AcDbLine
 10
72.43516744110026
 20
83.21243487897084
 30
0.0
 11
72.43516744110026
 21
86.21243487897084
 31
0.0
  0
LINE
  5
DE
330
1F
100
AcDbEntity
  8
0
  6
Continuous
 62
     2
100
AcDbLine
 10
72.43516744110026
 20
86.21243487897084
 30
0.0
 11
71.48516744110027
 21
86.21243487897084
 31
0.0
  0
LINE
  5
DF
330
1F
100
AcDbEntity
  8
0
  6
Continuous
 62
     7
100
AcDbLine
 10
72.08516744109899
 20
99.11243487897093
 30
0.0
 11
72.43516744110026
 21
99.11243487897087
 31
0.0
  0
LINE
  5
E0
330
1F
100
AcDbEntity
  8
0
  6
Continuous
 62
     7
100
AcDbLine
 10
72.43516744110026
 20
99.11243487897087
 30
0.0
 11
72.43516744110026
 21
96.11243487897084
 31
0.0
  0
LINE
  5
E1
330
1F
100
AcDbEntity
  8
0
  6
Continuous
 62
     7
100
AcDbLine
 10
71.48516744110027
 20
99.11243487897087
 30
0.0
 11
71.91760925223583
 21
99.1124348789709
 31
0.0
  0
LINE
  5
E2
330
1F
100
AcDbEntity
  8
0
  6
Continuous
 62
     2
100
AcDbLine
 10
72.43516744110026
 20
96.11243487897084
 30
0.0
 11
71.48516744110027
 21
96.11243487897084
 31
0.0
  0
LINE
  5
E3
330
1F
100
AcDbEntity
  8
0
  6
Continuous
 62
     7
100
AcDbLine
 10
71.91760925223583
 20
99.1124348789709
 30
0.0
 11
72.08516744109899
 21
99.11243487897093
 31
0.0
  0
LINE
  5
E4
330
1F
100
AcDbEntity
  8
0
  6
Continuous
 62
     7
100
AcDbLine
 10
72.43516744110026
 20
95.3624348789684
 30
0.0
 11
72.43516744110026
 21
86.96243487897215
 31
0.0
  0
LINE
  5
E5
330
1F
100
AcDbEntity
  8
0
  6
Continuous
 62
     7
100
AcDbLine
 10
72.43516744110026
 20
96.11243487897084
 30
0.0
 11
72.43516744110026
 21
95.51243487897023
 31
0.0
  0
LINE
  5
E6
330
1F
100
AcDbEntity
  8
0
  6
Continuous
 62
     7
100
AcDbLine
 10
72.43516744110026
 20
86.81243487897024
 30
0.0
 11
72.43516744110026
 21
86.21243487897084
 31
0.0
  0
LINE
  5
E7
330
1F
100
AcDbEntity
  8
0
  6
Continuous
 62
     7
100
AcDbLine
 10
72.43516744110026
 20
95.51243487897023
 30
0.0
 11
72.43516744110026
 21
95.3624348789684
 31
0.0
  0
LINE
  5
E8
330
1F
100
AcDbEntity
  8
0
  6
Continuous
 62
     7
100
AcDbLine
 10
72.43516744110026
 20
86.96243487897215
 30
0.0
 11
72.43516744110026
 21
86.81243487897024
 31
0.0
  0
LINE
  5
E9
330
1F
100
AcDbEntity
  8
0
  6
Continuous
 62
     7
100
AcDbLine
 10
71.48516744110027
 20
99.11243487897087
 30
0.0
 11
71.48516744110027
 21
96.11243487897084
 31
0.0
  0
LINE
  5
EA
330
1F
100
AcDbEntity
  8
0
  6
Continuous
 62
     7
100
AcDbLine
 10
71.48516744110027
 20
86.21243487897084
 30
0.0
 11
71.48516744110027
 21
96.11243487897084
 31
0.0
  0
LINE
  5
EB
330
1F
100
AcDbEntity
  8
0
  6
Continuous
 62
     7
100
AcDbLine
 10
71.48516744110027
 20
83.21243487897084
 30
0.0
 11
71.48516744110027
 21
86.21243487897084
 31
0.0
  0
LINE
  5
EC
330
1F
100
AcDbEntity
  8
0
  6
Continuous
 62
     7
100
AcDbLine
 10
72.43516744110026
 20
95.3624348789684
 30
0.0
 11
83.08516744110047
 21
95.3624348789684
 31
0.0
  0
LINE
  5
ED
330
1F
100
AcDbEntity
  8
0
  6
Continuous
 62
     7
100
AcDbLine
 10
72.43516744110026
 20
95.51243487897023
 30
0.0
 11
83.08516744110047
 21
95.51243487897023
 31
0.0
  0
LINE
  5
EE
330
1F
100
AcDbEntity
  8
0
  6
Continuous
 62
     7
100
AcDbLine
 10
72.08516744109899
 20
100.8124348789709
 30
0.0
 11
83.08516744110047
 21
100.8124348789709
 31
0.0
  0
LINE
  5
EF
330
1F
100
AcDbEntity
  8
0
  6
Continuous
 62
     7
100
AcDbLine
 10
69.41760925223544
 20
99.16243487897074
 30
0.0
 11
70.41760925223583
 21
99.16243487897074
 31
0.0
  0
LINE
  5
F0
330
1F
100
AcDbEntity
  8
0
  6
Continuous
 62
     7
100
AcDbLine
 10
72.43516744110026
 20
99.11243487897087
 30
0.0
 11
83.08516744110047
 21
99.1124348789709
 31
0.0
  0
LINE
  5
F1
330
1F
100
AcDbEntity
  8
0
  6
Continuous
 62
     7
100
AcDbLine
 10
73.66760925223583
 20
74.16243487897074
 30
0.0
 11
79.86760925223582
 21
74.16243487897074
 31
0.0
  0
LINE
  5
F2
330
1F
100
AcDbEntity
  8
0
  6
Continuous
 62
     7
100
AcDbLine
 10
72.08516744109899
 20
79.41243487897091
 30
0.0
 11
72.08516744109899
 21
81.51243487897091
 31
0.0
  0
LINE
  5
F3
330
1F
100
AcDbEntity
  8
0
  6
Continuous
 62
     7
100
AcDbLine
 10
71.46760925223545
 20
76.16243487897043
 30
0.0
 11
71.46760925223545
 21
78.16243487897049
 31
0.0
  0
LINE
  5
F4
330
1F
100
AcDbEntity
  8
0
  6
Continuous
 62
     7
100
AcDbLine
 10
71.46760925223545
 20
78.16243487897049
 30
0.0
 11
69.41760925223544
 21
78.16243487897049
 31
0.0
  0
LINE
  5
F5
330
1F
100
AcDbEntity
  8
0
  6
Continuous
 62
     7
100
AcDbLine
 10
70.41760925223583
 20
79.16243487897083
 30
0.0
 11
70.41760925223583
 21
83.16243487897074
 31
0.0
  0
LINE
  5
F6
330
1F
100
AcDbEntity
  8
0
  6
Continuous
 62
     7
100
AcDbLine
 10
71.91760925223583
 20
79.41243487897091
 30
0.0
 11
71.91760925223583
 21
83.2124348789709
 31
0.0
  0
LINE
  5
F7
330
1F
100
AcDbEntity
  8
0
  6
Continuous
 62
     7
100
AcDbLine
 10
72.08516744109899
 20
79.41243487897091
 30
0.0
 11
71.91760925223583
 21
79.41243487897091
 31
0.0
  0
LINE
  5
F8
330
1F
100
AcDbEntity
  8
0
  6
Continuous
 62
     7
100
AcDbLine
 10
69.41760925223544
 20
79.16243487897077
 30
0.0
 11
69.41760925223544
 21
83.16243487897074
 31
0.0
  0
LINE
  5
F9
330
1F
100
AcDbEntity
  8
0
  6
Continuous
 62
     7
100
AcDbLine
 10
69.41760925223544
 20
83.16243487897074
 30
0.0
 11
70.41760925223583
 21
83.16243487897074
 31
0.0
  0
LINE
  5
FA
330
1F
100
AcDbEntity
  8
0
  6
Continuous
 62
     7
100
AcDbLine
 10
69.41760925223544
 20
79.16243487897077
 30
0.0
 11
70.41760925223583
 21
79.16243487897083
 31
0.0
  0
LINE
  5
FB
330
1F
100
AcDbEntity
  8
0
  6
Continuous
 62
     7
100
AcDbLine
 10
69.41760925223544
 20
78.16243487897049
 30
0.0
 11
69.41760925223544
 21
79.16243487897077
 31
0.0
  0
LINE
  5
FC
330
1F
100
AcDbEntity
  8
0
  6
Continuous
 62
     7
100
AcDbLine
 10
73.66760925223583
 20
76.16243487897043
 30
0.0
 11
73.66760925223583
 21
74.16243487897074
 31
0.0
  0
LINE
  5
FD
330
1F
100
AcDbEntity
  8
0
  6
Continuous
 62
     7
100
AcDbLine
 10
69.41760925223544
 20
76.1624348789704
 30
0.0
 11
69.41760925223544
 21
78.16243487897049
 31
0.0
  0
LINE
  5
FE
330
1F
100
AcDbEntity
  8
0
  6
Continuous
 62
     7
100
AcDbLine
 10
71.46760925223545
 20
76.16243487897043
 30
0.0
 11
69.41760925223544
 21
76.1624348789704
 31
0.0
  0
LINE
  5
FF
330
1F
100
AcDbEntity
  8
0
  6
Continuous
 62
     7
100
AcDbLine
 10
79.86760925223582
 20
74.16243487897074
 30
0.0
 11
79.86760925223582
 21
76.16243487897043
 31
0.0
  0
LINE
  5
100
330
1F
100
AcDbEntity
  8
0
  6
Continuous
 62
     7
100
AcDbLine
 10
82.06760925223564
 20
106.1624348789708
 30
0.0
 11
82.06760925223564
 21
104.1624348789708
 31
0.0
  0
LINE
  5
101
330
1F
100
AcDbEntity
  8
0
  6
Continuous
 62
     7
100
AcDbLine
 10
84.11760925223543
 20
104.1624348789708
 30
0.0
 11
84.11760925223543
 21
106.1624348789708
 31
0.0
  0
LINE
  5
102
330
1F
100
AcDbEntity
  8
0
  6
Continuous
 62
     7
100
AcDbLine
 10
80.86760925223594
 20
108.1624348789707
 30
0.0
 11
80.86760925223594
 21
106.1624348789709
 31
0.0
  0
LINE
  5
103
330
1F
100
AcDbEntity
  8
0
  6
Continuous
 62
     7
100
AcDbLine
 10
83.08516744110047
 20
102.9124348789709
 30
0.0
 11
72.08516744109899
 21
102.9124348789709
 31
0.0
  0
LINE
  5
104
330
1F
100
AcDbEntity
  8
0
  6
Continuous
 62
     7
100
AcDbLine
 10
70.41760925223583
 20
99.16243487897074
 30
0.0
 11
70.41760925223583
 21
103.1624348789709
 31
0.0
  0
LINE
  5
105
330
1F
100
AcDbEntity
  8
0
  6
Continuous
 62
     7
100
AcDbLine
 10
71.91760925223583
 20
102.9124348789709
 30
0.0
 11
71.91760925223583
 21
99.1124348789709
 31
0.0
  0
LINE
  5
106
330
1F
100
AcDbEntity
  8
0
  6
Continuous
 62
     7
100
AcDbLine
 10
73.36516744110027
 20
94.33743487897053
 30
0.0
 11
72.43516744110026
 21
94.33743487897053
 31
0.0
  0
LINE
  5
107
330
1F
100
AcDbEntity
  8
0
  6
Continuous
 62
     7
100
AcDbLine
 10
72.08516744109899
 20
102.9124348789709
 30
0.0
 11
71.91760925223583
 21
102.9124348789709
 31
0.0
  0
LINE
  5
108
330
1F
100
AcDbEntity
  8
0
  6
Continuous
 62
     7
100
AcDbLine
 10
72.08516744109899
 20
100.8124348789709
 30
0.0
 11
72.08516744109899
 21
99.11243487897093
 31
0.0
  0
LINE
  5
109
330
1F
100
AcDbEntity
  8
0
  6
Continuous
 62
     7
100
AcDbLine
 10
83.08516744110047
 20
86.96243487897215
 30
0.0
 11
72.43516744110026
 21
86.96243487897215
 31
0.0
  0
LINE
  5
10A
330
1F
100
AcDbEntity
  8
0
  6
Continuous
 62
     7
100
AcDbLine
 10
72.43516744110026
 20
86.81243487897024
 30
0.0
 11
83.08516744110047
 21
86.81243487897024
 31
0.0
  0
LINE
  5
10B
330
1F
100
AcDbEntity
  8
0
  6
Continuous
 62
     7
100
AcDbLine
 10
72.08516744109899
 20
81.51243487897091
 30
0.0
 11
83.08516744110047
 21
81.51243487897091
 31
0.0
  0
LINE
  5
10C
330
1F
100
AcDbEntity
  8
0
  6
Continuous
 62
     7
100
AcDbLine
 10
82.06760925223564
 20
76.1624348789704
 30
0.0
 11
82.06760925223615
 21
78.16243487897049
 31
0.0
  0
LINE
  5
10D
330
1F
100
AcDbEntity
  8
0
  6
Continuous
 62
     7
100
AcDbLine
 10
82.06760925223564
 20
76.1624348789704
 30
0.0
 11
79.86760925223582
 21
76.16243487897043
 31
0.0
  0
LINE
  5
10E
330
1F
100
AcDbEntity
  8
0
  6
Continuous
 62
     7
100
AcDbLine
 10
73.66760925223583
 20
76.16243487897043
 30
0.0
 11
71.46760925223545
 21
76.16243487897043
 31
0.0
  0
LINE
  5
10F
330
1F
100
AcDbEntity
  8
0
  6
Continuous
 62
     7
100
AcDbLine
 10
72.08516744109899
 20
79.41243487897091
 30
0.0
 11
83.08516744110047
 21
79.41243487897088
 31
0.0
  0
LINE
  5
110
330
1F
100
AcDbEntity
  8
0
  6
Continuous
 62
     7
100
AcDbLine
 10
72.43516744110026
 20
83.21243487897084
 30
0.0
 11
83.08516744110047
 21
83.2124348789709
 31
0.0
  0
LINE
  5
111
330
1F
100
AcDbEntity
  8
0
  6
Continuous
 62
     7
100
AcDbLine
 10
72.08516744109899
 20
81.51243487897091
 30
0.0
 11
72.08516744109899
 21
83.21243487897095
 31
0.0
  0
LINE
  5
112
330
1F
100
AcDbEntity
  8
0
  6
Continuous
 62
     7
100
AcDbLine
 10
76.76760925223586
 20
150.3743479532056
 30
0.0
 11
79.47614008888884
 21
148.8124355689425
 31
0.0
  0
LINE
  5
113
330
1F
100
AcDbEntity
  8
0
  6
Continuous
 62
     7
100
AcDbLine
 10
79.47614008888884
 20
148.8124355689425
 30
0.0
 11
76.76760925223586
 21
147.2505231846792
 31
0.0
  0
LINE
  5
114
330
1F
100
AcDbEntity
  8
0
  6
Continuous
 62
     7
100
AcDbLine
 10
84.11760925223543
 20
152.6624355689423
 30
0.0
 11
82.06760925223564
 21
152.6624355689423
 31
0.0
  0
LINE
  5
115
330
1F
100
AcDbEntity
  8
0
  6
Continuous
 62
     7
100
AcDbLine
 10
71.46760925223545
 20
152.6624355689423
 30
0.0
 11
69.41760925223544
 21
152.6624355689423
 31
0.0
  0
LINE
  5
116
330
1F
100
AcDbEntity
  8
0
  6
Continuous
 62
     7
100
AcDbLine
 10
76.24677356305877
 20
148.4042411013601
 30
0.0
 11
76.2467742887306
 21
149.7011855920803
 31
0.0
  0
LINE
  5
117
330
1F
100
AcDbEntity
  8
0
  6
Continuous
 62
     7
100
AcDbLine
 10
75.41343646037542
 20
148.4042411013601
 30
0.0
 11
75.41343646037542
 21
149.2206300365247
 31
0.0
  0
LINE
  5
118
330
1F
100
AcDbEntity
  8
0
  6
Continuous
 62
     7
100
AcDbLine
 10
75.62177073604626
 20
149.2206300365247
 30
0.0
 11
75.62177073604626
 21
148.4042411013601
 31
0.0
  0
LINE
  5
119
330
1F
100
AcDbEntity
  8
0
  6
Continuous
 62
     7
100
AcDbLine
 10
75.83010507071806
 20
148.1639633235824
 30
0.0
 11
75.8301050117171
 21
149.4609078143025
 31
0.0
  0
LINE
  5
11A
330
1F
100
AcDbEntity
  8
0
  6
Continuous
 62
     7
100
AcDbLine
 10
79.26762056028583
 20
148.8124355689424
 30
0.0
 11
76.76760925223586
 21
150.2541022356091
 31
0.0
  0
LINE
  5
11B
330
1F
100
AcDbEntity
  8
0
  6
Continuous
 62
     7
100
AcDbLine
 10
77.65298365174944
 20
149.5511454931265
 30
0.0
 11
78.27798647876195
 21
149.1907288264599
 31
0.0
  0
LINE
  5
11C
330
1F
100
AcDbEntity
  8
0
  6
Continuous
 62
     7
100
AcDbLine
 10
78.17391188510142
 20
149.0102534688118
 30
0.0
 11
77.70511349275456
 21
149.2805926522615
 31
0.0
  0
LINE
  5
11D
330
1F
100
AcDbEntity
  8
0
  6
Continuous
 62
     7
100
AcDbLine
 10
77.70511349275456
 20
149.2805926522615
 30
0.0
 11
77.70511349275456
 21
148.9166022356091
 31
0.0
  0
LINE
  5
11E
330
1F
100
AcDbEntity
  8
0
  6
Continuous
 62
     7
100
AcDbLine
 10
77.70511349275456
 20
148.9166022356091
 30
0.0
 11
78.22594918193165
 21
148.9166022356091
 31
0.0
  0
LINE
  5
11F
330
1F
100
AcDbEntity
  8
0
  6
Continuous
 62
     7
100
AcDbLine
 10
77.08011066574211
 20
149.4223380019359
 30
0.0
 11
76.76760925223586
 21
149.0624355689424
 31
0.0
  0
LINE
  5
120
330
1F
100
AcDbEntity
  8
0
  6
Continuous
 62
     7
100
AcDbLine
 10
76.76760870429531
 20
149.3801962696761
 30
0.0
 11
77.10562254809311
 21
149.7694809241146
 31
0.0
  0
LINE
  5
121
330
1F
100
AcDbEntity
  8
0
  6
Continuous
 62
     7
100
AcDbLine
 10
76.76760925223586
 20
150.2541022356091
 30
0.0
 11
74.26759794418588
 21
148.8124355689425
 31
0.0
  0
LINE
  5
122
330
1F
100
AcDbEntity
  8
0
  6
Continuous
 62
     7
100
AcDbLine
 10
76.42959540843806
 20
149.7694804483407
 30
0.0
 11
76.76760870429531
 21
149.3801962696761
 31
0.0
  0
LINE
  5
123
330
1F
100
AcDbEntity
  8
0
  6
Continuous
 62
     7
100
AcDbLine
 10
76.76760925223586
 20
149.0624355689424
 30
0.0
 11
76.4551078387296
 21
149.4223380019359
 31
0.0
  0
LINE
  5
124
330
1F
100
AcDbEntity
  8
0
  6
Continuous
 62
     7
100
AcDbLine
 10
74.26759794418588
 20
148.8124355689425
 30
0.0
 11
76.76760925223586
 21
147.3707689022758
 31
0.0
  0
LINE
  5
125
330
1F
100
AcDbEntity
  8
0
  6
Continuous
 62
     7
100
AcDbLine
 10
76.7155719259314
 20
147.5931700380912
 30
0.0
 11
75.88223482324806
 21
148.0737255936468
 31
0.0
  0
LINE
  5
126
330
1F
100
AcDbEntity
  8
0
  6
Continuous
 62
     7
100
AcDbLine
 10
76.76760925223586
 20
147.3707689022758
 30
0.0
 11
79.26762056028583
 21
148.8124355689424
 31
0.0
  0
LINE
  5
127
330
1F
100
AcDbEntity
  8
0
  6
Continuous
 62
     7
100
AcDbLine
 10
78.22594918193165
 20
148.7082689022758
 30
0.0
 11
77.70511349275456
 21
148.7082689022758
 31
0.0
  0
LINE
  5
128
330
1F
100
AcDbEntity
  8
0
  6
Continuous
 62
     7
100
AcDbLine
 10
77.70511349275456
 20
148.7082689022758
 30
0.0
 11
77.70511349275462
 21
148.3442784856233
 31
0.0
  0
LINE
  5
129
330
1F
100
AcDbEntity
  8
0
  6
Continuous
 62
     7
100
AcDbLine
 10
77.70511349275462
 20
148.3442784856233
 30
0.0
 11
78.17391188510142
 21
148.6146176690731
 31
0.0
  0
LINE
  5
12A
330
1F
100
AcDbEntity
  8
0
  6
Continuous
 62
     7
100
AcDbLine
 10
78.27798647876195
 20
148.434142311425
 30
0.0
 11
77.65298391638824
 21
148.073725185845
 31
0.0
  0
LINE
  5
12B
330
1F
100
AcDbEntity
  8
0
  6
Continuous
 62
     7
100
AcDbLine
 10
76.03843928738793
 20
148.2241395967345
 30
0.0
 11
76.81964654906615
 21
147.7736454468508
 31
0.0
  0
LINE
  5
12C
330
1F
100
AcDbEntity
  8
0
  6
Continuous
 62
     7
100
AcDbLine
 10
76.03843928738793
 20
149.4609078143025
 30
0.0
 11
76.03843928738793
 21
148.2241395967345
 31
0.0
  0
LINE
  5
12D
330
1F
100
AcDbEntity
  8
0
  6
Continuous
 62
     7
100
AcDbLine
 10
76.4551078387296
 20
149.4223380019359
 30
0.0
 11
76.4551078387296
 21
148.4042411013601
 31
0.0
  0
LINE
  5
12E
330
1F
100
AcDbEntity
  8
0
  6
Continuous
 62
     7
100
AcDbLine
 10
77.49677974683381
 20
148.1639633235824
 30
0.0
 11
77.49677974683381
 21
149.4609078143025
 31
0.0
  0
LINE
  5
12F
330
1F
100
AcDbEntity
  8
0
  6
Continuous
 62
     7
100
AcDbLine
 10
77.28844494141295
 20
149.7011855920803
 30
0.0
 11
77.28844494141295
 21
147.9236855458046
 31
0.0
  0
LINE
  5
130
330
1F
100
AcDbEntity
  8
0
  6
Continuous
 62
     7
100
AcDbLine
 10
77.08011066574211
 20
147.9236855458046
 30
0.0
 11
77.08011066574211
 21
149.4223380019359
 31
0.0
  0
LINE
  5
131
330
1F
100
AcDbEntity
  8
0
  6
Continuous
 62
     7
100
AcDbLine
 10
84.11760925223543
 20
135.9624355689425
 30
0.0
 11
84.11760925223543
 21
152.6624355689423
 31
0.0
  0
LINE
  5
132
330
1F
100
AcDbEntity
  8
0
  6
Continuous
 62
     7
100
AcDbLine
 10
85.0176092522354
 20
160.1624355689423
 30
0.0
 11
84.11760925223543
 21
160.1624355689423
 31
0.0
  0
LINE
  5
133
330
1F
100
AcDbEntity
  8
0
  6
Continuous
 62
     7
100
AcDbLine
 10
84.11760925223543
 20
160.1624355689423
 30
0.0
 11
84.11760925223543
 21
152.6624355689423
 31
0.0
  0
LINE
  5
134
330
1F
100
AcDbEntity
  8
0
  6
Continuous
 62
     7
100
AcDbLine
 10
76.76760925223586
 20
147.2505231846792
 30
0.0
 11
74.05907841558287
 21
148.8124355689425
 31
0.0
  0
LINE
  5
135
330
1F
100
AcDbEntity
  8
0
  6
Continuous
 62
     7
100
AcDbLine
 10
84.11760925223543
 20
135.9624355689425
 30
0.0
 11
69.41760925223544
 21
135.9624355689425
 31
0.0
  0
LINE
  5
136
330
1F
100
AcDbEntity
  8
0
  6
Continuous
 62
     7
100
AcDbLine
 10
74.05907841558287
 20
148.8124355689425
 30
0.0
 11
76.76760925223586
 21
150.3743479532056
 31
0.0
  0
LINE
  5
137
330
1F
100
AcDbEntity
  8
0
  6
Continuous
 62
     7
100
AcDbLine
 10
84.11760925223543
 20
170.1624355689423
 30
0.0
 11
84.11760925223543
 21
160.1624355689423
 31
0.0
  0
LINE
  5
138
330
1F
100
AcDbEntity
  8
0
  6
Continuous
 62
     7
100
AcDbLine
 10
85.0176092522354
 20
170.1624355689423
 30
0.0
 11
85.0176092522354
 21
160.1624355689423
 31
0.0
  0
LINE
  5
139
330
1F
100
AcDbEntity
  8
0
  6
Continuous
 62
     7
100
AcDbLine
 10
82.06760925223615
 20
166.6624355689423
 30
0.0
 11
82.06760925223564
 21
161.6624355689424
 31
0.0
  0
LINE
  5
13A
330
1F
100
AcDbEntity
  8
0
  6
Continuous
 62
     7
100
AcDbLine
 10
83.08516744110047
 20
170.1624355689423
 30
0.0
 11
83.08516744110047
 21
177.6624355689422
 31
0.0
  0
LINE
  5
13B
330
1F
100
AcDbEntity
  8
0
  6
Continuous
 62
     7
100
AcDbLine
 10
83.08516744110047
 20
178.1624355689422
 30
0.0
 11
83.08516744110047
 21
177.6624355689422
 31
0.0
  0
LINE
  5
13C
330
1F
100
AcDbEntity
  8
0
  6
Continuous
 62
     7
100
AcDbLine
 10
72.08516744109893
 20
177.6624355689422
 30
0.0
 11
83.08516744110047
 21
177.6624355689422
 31
0.0
  0
LINE
  5
13D
330
1F
100
AcDbEntity
  8
0
  6
Continuous
 62
     7
100
AcDbLine
 10
82.06760925223564
 20
170.1624355689423
 30
0.0
 11
79.86760925223582
 21
170.1624355689423
 31
0.0
  0
LINE
  5
13E
330
1F
100
AcDbEntity
  8
0
  6
Continuous
 62
     7
100
AcDbLine
 10
73.66760925223583
 20
170.1624355689423
 30
0.0
 11
72.08516744109893
 21
170.1624355689426
 31
0.0
  0
LINE
  5
13F
330
1F
100
AcDbEntity
  8
0
  6
Continuous
 62
     7
100
AcDbLine
 10
72.08516744109893
 20
170.1624355689426
 30
0.0
 11
71.48516744110027
 21
170.1624355689423
 31
0.0
  0
LINE
  5
140
330
1F
100
AcDbEntity
  8
0
  6
Continuous
 62
     7
100
AcDbLine
 10
73.66760925223583
 20
170.1624355689423
 30
0.0
 11
79.86760925223582
 21
170.1624355689423
 31
0.0
  0
LINE
  5
141
330
1F
100
AcDbEntity
  8
0
  6
Continuous
 62
     7
100
AcDbLine
 10
71.48516744110027
 20
170.1624355689423
 30
0.0
 11
71.46760925223545
 21
170.1624355689423
 31
0.0
  0
LINE
  5
142
330
1F
100
AcDbEntity
  8
0
  6
Continuous
 62
     7
100
AcDbLine
 10
72.08516744109893
 20
170.1624355689426
 30
0.0
 11
72.08516744109893
 21
177.6624355689422
 31
0.0
  0
LINE
  5
143
330
1F
100
AcDbEntity
  8
0
  6
Continuous
 62
     7
100
AcDbLine
 10
72.43516744110026
 20
178.1624355689422
 30
0.0
 11
83.08516744110047
 21
178.1624355689422
 31
0.0
  0
LINE
  5
144
330
1F
100
AcDbEntity
  8
0
  6
Continuous
 62
     7
100
AcDbLine
 10
72.43516744110026
 20
188.6624355689422
 30
0.0
 11
72.43516744110026
 21
191.6624355689422
 31
0.0
  0
LINE
  5
145
330
1F
100
AcDbEntity
  8
0
  6
Continuous
 62
     7
100
AcDbLine
 10
71.48516744110027
 20
170.1624355689423
 30
0.0
 11
71.48516744110027
 21
188.6624355689422
 31
0.0
  0
LINE
  5
146
330
1F
100
AcDbEntity
  8
0
  6
Continuous
 62
     7
100
AcDbLine
 10
73.66760925223583
 20
167.1624355689423
 30
0.0
 11
73.66760925223583
 21
170.1624355689423
 31
0.0
  0
LINE
  5
147
330
1F
100
AcDbEntity
  8
0
  6
Continuous
 62
     7
100
AcDbLine
 10
69.41760925223544
 20
170.1624355689423
 30
0.0
 11
71.46760925223545
 21
170.1624355689423
 31
0.0
  0
LINE
  5
148
330
1F
100
AcDbEntity
  8
0
  6
Continuous
 62
     7
100
AcDbLine
 10
69.41760925223544
 20
152.6624355689423
 30
0.0
 11
69.41760925223544
 21
170.1624355689423
 31
0.0
  0
LINE
  5
149
330
1F
100
AcDbEntity
  8
0
  6
Continuous
 62
     2
100
AcDbLine
 10
72.43516744110026
 20
188.6624355689422
 30
0.0
 11
71.48516744110027
 21
188.6624355689422
 31
0.0
  0
LINE
  5
14A
330
1F
100
AcDbEntity
  8
0
  6
Continuous
 62
     7
100
AcDbLine
 10
72.43516744110026
 20
178.1624355689422
 30
0.0
 11
72.43516744110026
 21
188.6624355689422
 31
0.0
  0
LINE
  5
14B
330
1F
100
AcDbEntity
  8
0
  6
Continuous
 62
     7
100
AcDbLine
 10
72.43516744110026
 20
191.6624355689422
 30
0.0
 11
71.48516744110027
 21
191.6624355689422
 31
0.0
  0
LINE
  5
14C
330
1F
100
AcDbEntity
  8
0
  6
Continuous
 62
     7
100
AcDbLine
 10
71.48516744110027
 20
188.6624355689422
 30
0.0
 11
71.48516744110027
 21
191.6624355689422
 31
0.0
  0
LINE
  5
14D
330
1F
100
AcDbEntity
  8
0
  6
Continuous
 62
     7
100
AcDbLine
 10
69.41760925223544
 20
135.9624355689425
 30
0.0
 11
69.41760925223544
 21
152.6624355689423
 31
0.0
  0
LINE
  5
14E
330
1F
100
AcDbEntity
  8
0
  6
Continuous
 62
     7
100
AcDbLine
 10
71.46760925223545
 20
170.1624355689423
 30
0.0
 11
71.46760925223545
 21
152.6624355689423
 31
0.0
  0
LINE
  5
14F
330
1F
100
AcDbEntity
  8
0
  6
Continuous
 62
     7
100
AcDbLine
 10
72.68516744109913
 20
166.5624355689422
 30
0.0
 11
72.68516744109913
 21
162.0624355689422
 31
0.0
  0
LINE
  5
150
330
1F
100
AcDbEntity
  8
0
  6
Continuous
 62
     7
100
AcDbLine
 10
85.0176092522354
 20
170.1624355689423
 30
0.0
 11
84.11760925223543
 21
170.1624355689423
 31
0.0
  0
LINE
  5
151
330
1F
100
AcDbEntity
  8
0
  6
Continuous
 62
     7
100
AcDbLine
 10
83.08516744110047
 20
170.1624355689423
 30
0.0
 11
84.11760925223543
 21
170.1624355689423
 31
0.0
  0
LINE
  5
152
330
1F
100
AcDbEntity
  8
0
  6
Continuous
 62
     7
100
AcDbLine
 10
82.06760925223564
 20
170.1624355689423
 30
0.0
 11
83.08516744110047
 21
170.1624355689423
 31
0.0
  0
LINE
  5
153
330
1F
100
AcDbEntity
  8
0
  6
Continuous
 62
     7
100
AcDbLine
 10
79.36760925223582
 20
166.6624355689423
 30
0.0
 11
82.06760925223615
 21
166.6624355689423
 31
0.0
  0
LINE
  5
154
330
1F
100
AcDbEntity
  8
0
  6
Continuous
 62
     7
100
AcDbLine
 10
82.06760925223564
 20
161.6624355689424
 30
0.0
 11
72.66760925223595
 21
161.6624355689424
 31
0.0
  0
LINE
  5
155
330
1F
100
AcDbEntity
  8
0
  6
Continuous
 62
     7
100
AcDbLine
 10
79.36760925223582
 20
166.6624355689423
 30
0.0
 11
74.16760925223583
 21
166.6624355689423
 31
0.0
  0
LINE
  5
156
330
1F
100
AcDbEntity
  8
0
  6
Continuous
 62
     7
100
AcDbLine
 10
72.66760925223595
 20
161.6624355689424
 30
0.0
 11
72.66760925223595
 21
166.6624355689423
 31
0.0
  0
LINE
  5
157
330
1F
100
AcDbEntity
  8
0
  6
Continuous
 62
     7
100
AcDbLine
 10
72.66760925223595
 20
166.6624355689423
 30
0.0
 11
74.16760925223583
 21
166.6624355689423
 31
0.0
  0
LINE
  5
158
330
1F
100
AcDbEntity
  8
0
  6
Continuous
 62
     7
100
AcDbLine
 10
72.68516744109913
 20
162.0624355689422
 30
0.0
 11
81.88516744109934
 21
162.0624355689422
 31
0.0
  0
LINE
  5
159
330
1F
100
AcDbEntity
  8
0
  6
Continuous
 62
     7
100
AcDbLine
 10
72.68516744109913
 20
166.5624355689422
 30
0.0
 11
81.88516744109934
 21
166.5624355689422
 31
0.0
  0
LINE
  5
15A
330
1F
100
AcDbEntity
  8
0
  6
Continuous
 62
     7
100
AcDbLine
 10
82.06760925223564
 20
161.6624355689424
 30
0.0
 11
82.06760925223564
 21
152.6624355689423
 31
0.0
  0
LINE
  5
15B
330
1F
100
AcDbEntity
  8
0
  6
Continuous
 62
     7
100
AcDbLine
 10
79.86760925223582
 20
167.1624355689423
 30
0.0
 11
79.86760925223582
 21
170.1624355689423
 31
0.0
  0
LINE
  5
15C
330
1F
100
AcDbEntity
  8
0
  6
Continuous
 62
     7
100
AcDbLine
 10
82.06760925223564
 20
170.1624355689423
 30
0.0
 11
82.06760925223615
 21
166.6624355689423
 31
0.0
  0
LINE
  5
15D
330
1F
100
AcDbEntity
  8
0
  6
Continuous
 62
     7
100
AcDbLine
 10
81.88516744109934
 20
166.5624355689422
 30
0.0
 11
81.88516744109934
 21
162.0624355689422
 31
0.0
  0
LINE
  5
15E
330
1F
100
AcDbEntity
  8
0
  6
Continuous
 62
     7
100
AcDbLine
 10
172.7968470707426
 20
268.6540811177804
 30
0.0
 11
160.422478399978
 21
274.8412654531628
 31
0.0
  0
LINE
  5
15F
330
1F
100
AcDbEntity
  8
0
  6
Continuous
 62
     7
100
AcDbLine
 10
182.4842179689974
 20
272.5031261398892
 30
0.0
 11
181.7358552962427
 21
271.1095325273013
 31
0.0
  0
LINE
  5
160
330
1F
100
AcDbEntity
  8
0
  6
Continuous
 62
     7
100
AcDbLine
 10
182.6316635416823
 20
272.5811790532509
 30
0.0
 11
181.820881858564
 21
271.0713493731599
 31
0.0
  0
LINE
  5
161
330
1F
100
AcDbEntity
  8
0
  6
Continuous
 62
     7
100
AcDbLine
 10
181.7358552962428
 20
271.1138626543205
 30
0.0
 11
182.4842179689974
 21
272.5074562669084
 31
0.0
  0
LINE
  5
162
330
1F
100
AcDbEntity
  8
0
  6
Continuous
 62
     2
100
AcDbLine
 10
181.8507275265696
 20
272.0508326672568
 30
0.0
 11
181.8507275265696
 21
272.0465025402376
 31
0.0
  0
LINE
  5
163
330
1F
100
AcDbEntity
  8
0
  6
Continuous
 62
     7
100
AcDbLine
 10
182.0519352383549
 20
272.0238208494187
 30
0.0
 11
181.8648445701662
 21
271.6754224462717
 31
0.0
  0
LINE
  5
164
330
1F
100
AcDbEntity
  8
0
  6
Continuous
 62
     7
100
AcDbLine
 10
181.8507275265696
 20
272.0465025402376
 30
0.0
 11
181.7103956741696
 21
271.7851779442
 31
0.0
  0
LINE
  5
165
330
1F
100
AcDbEntity
  8
0
  6
Continuous
 62
     7
100
AcDbLine
 10
181.7103956741696
 20
271.7895080712191
 30
0.0
 11
181.8507275265696
 21
272.0508326672568
 31
0.0
  0
LINE
  5
166
330
1F
100
AcDbEntity
  8
0
  6
Continuous
 62
     2
100
AcDbLine
 10
181.7131706358737
 20
271.4934914322062
 30
0.0
 11
181.7131706358737
 21
271.4891613051869
 31
0.0
  0
LINE
  5
167
330
1F
100
AcDbEntity
  8
0
  6
Continuous
 62
     7
100
AcDbLine
 10
181.7103956741696
 20
271.7895080712191
 30
0.0
 11
181.7103956741696
 21
271.7851779442
 31
0.0
  0
LINE
  5
168
330
1F
100
AcDbEntity
  8
0
  6
Continuous
 62
     7
100
AcDbLine
 10
181.7358552962428
 20
271.1138626543205
 30
0.0
 11
181.7358552962427
 21
271.1095325273013
 31
0.0
  0
LINE
  5
169
330
1F
100
AcDbEntity
  8
0
  6
Continuous
 62
     2
100
AcDbLine
 10
181.6739881172216
 20
272.1759982973941
 30
0.0
 11
181.6739881172216
 21
272.1716681703749
 31
0.0
  0
LINE
  5
16A
330
1F
100
AcDbEntity
  8
0
  6
Continuous
 62
     7
100
AcDbLine
 10
182.4842179689974
 20
272.5074562669084
 30
0.0
 11
182.4842179689974
 21
272.5031261398892
 31
0.0
  0
LINE
  5
16B
330
1F
100
AcDbEntity
  8
0
  6
Continuous
 62
     7
100
AcDbLine
 10
180.3149751909997
 20
271.8243023194897
 30
0.0
 11
180.2787212531188
 21
272.0814411695145
 31
0.0
  0
LINE
  5
16C
330
1F
100
AcDbEntity
  8
0
  6
Continuous
 62
     2
100
AcDbLine
 10
180.1948499111601
 20
271.0741351619196
 30
0.0
 11
180.1948499111601
 21
271.0698050349004
 31
0.0
  0
LINE
  5
16D
330
1F
100
AcDbEntity
  8
0
  6
Continuous
 62
     7
100
AcDbLine
 10
180.506148742421
 20
271.9496877998521
 30
0.0
 11
180.5396663247356
 21
271.7119571400742
 31
0.0
  0
LINE
  5
16E
330
1F
100
AcDbEntity
  8
0
  6
Continuous
 62
     7
100
AcDbLine
 10
180.6168300645437
 20
271.1577742433886
 30
0.0
 11
180.6168300645437
 21
271.1534441163694
 31
0.0
  0
LINE
  5
16F
330
1F
100
AcDbEntity
  8
0
  6
Continuous
 62
     2
100
AcDbLine
 10
180.7841082274818
 20
271.3687643200805
 30
0.0
 11
180.7841082274818
 21
271.3644341930612
 31
0.0
  0
LINE
  5
170
330
1F
100
AcDbEntity
  8
0
  6
Continuous
 62
     7
100
AcDbLine
 10
180.3149751909997
 20
271.8243023194897
 30
0.0
 11
180.3149751909997
 21
271.8199721924705
 31
0.0
  0
LINE
  5
171
330
1F
100
AcDbEntity
  8
0
  6
Continuous
 62
     7
100
AcDbLine
 10
181.8213020299688
 20
272.1023413410205
 30
0.0
 11
181.4530155822677
 21
271.9181981171701
 31
0.0
  0
LINE
  5
172
330
1F
100
AcDbEntity
  8
0
  6
Continuous
 62
     7
100
AcDbLine
 10
181.3057016695205
 20
271.9918550735437
 30
0.0
 11
181.6739881172216
 21
272.1759982973941
 31
0.0
  0
LINE
  5
173
330
1F
100
AcDbEntity
  8
0
  6
Continuous
 62
     7
100
AcDbLine
 10
181.0483215776187
 20
272.1205451194945
 30
0.0
 11
181.3057016695205
 21
271.9918550735437
 31
0.0
  0
LINE
  5
174
330
1F
100
AcDbEntity
  8
0
  6
Continuous
 62
     7
100
AcDbLine
 10
181.5709707696942
 20
272.1907110456946
 30
0.0
 11
181.0483215776187
 21
272.1205451194945
 31
0.0
  0
LINE
  5
175
330
1F
100
AcDbEntity
  8
0
  6
Continuous
 62
     7
100
AcDbLine
 10
180.2784633832138
 20
272.085103704009
 30
0.0
 11
180.2787212531188
 21
272.0814411695145
 31
0.0
  0
LINE
  5
176
330
1F
100
AcDbEntity
  8
0
  6
Continuous
 62
     2
100
AcDbLine
 10
180.4562877864653
 20
272.1219323437829
 30
0.0
 11
180.4562882995928
 21
272.1176024733275
 31
0.0
  0
LINE
  5
177
330
1F
100
AcDbEntity
  8
0
  6
Continuous
 62
     7
100
AcDbLine
 10
181.5417979986594
 20
271.1740953568075
 30
0.0
 11
180.6127355902675
 21
271.0493682446818
 31
0.0
  0
LINE
  5
178
330
1F
100
AcDbEntity
  8
0
  6
Continuous
 62
     7
100
AcDbLine
 10
181.487774485056
 20
271.270368858358
 30
0.0
 11
180.6168300645437
 21
271.1534441163694
 31
0.0
  0
LINE
  5
179
330
1F
100
AcDbEntity
  8
0
  6
Continuous
 62
     7
100
AcDbLine
 10
180.6168300645437
 20
271.1577742433886
 30
0.0
 11
181.487774485056
 21
271.2746989853773
 31
0.0
  0
LINE
  5
17A
330
1F
100
AcDbEntity
  8
0
  6
Continuous
 62
     7
100
AcDbLine
 10
181.7131706358737
 20
271.4891613051869
 30
0.0
 11
180.4562882995928
 21
272.1176024733275
 31
0.0
  0
LINE
  5
17B
330
1F
100
AcDbEntity
  8
0
  6
Continuous
 62
     7
100
AcDbLine
 10
180.4562877864653
 20
272.1219323437829
 30
0.0
 11
181.7131706358737
 21
271.4934914322062
 31
0.0
  0
LINE
  5
17C
330
1F
100
AcDbEntity
  8
0
  6
Continuous
 62
     7
100
AcDbLine
 10
181.6905835435089
 20
271.6520999320588
 30
0.0
 11
180.7735052992981
 21
272.1106390541643
 31
0.0
  0
LINE
  5
17D
330
1F
100
AcDbEntity
  8
0
  6
Continuous
 62
     7
100
AcDbLine
 10
181.6739881172216
 20
272.1716681703749
 30
0.0
 11
181.3057016695205
 21
271.9875249465245
 31
0.0
  0
LINE
  5
17E
330
1F
100
AcDbEntity
  8
0
  6
Continuous
 62
     7
100
AcDbLine
 10
181.3057016695205
 20
271.9875249465245
 30
0.0
 11
181.0483215776187
 21
272.1162149924754
 31
0.0
  0
LINE
  5
17F
330
1F
100
AcDbEntity
  8
0
  6
Continuous
 62
     7
100
AcDbLine
 10
181.5169472713907
 20
272.2869845187537
 30
0.0
 11
180.8201504650968
 21
272.1934391846594
 31
0.0
  0
LINE
  5
180
330
1F
100
AcDbEntity
  8
0
  6
Continuous
 62
     7
100
AcDbLine
 10
180.820150327724
 20
272.1977695674929
 30
0.0
 11
181.5169472713907
 21
272.291314645773
 31
0.0
  0
LINE
  5
181
330
1F
100
AcDbEntity
  8
0
  6
Continuous
 62
     2
100
AcDbLine
 10
181.5169472713907
 20
272.291314645773
 30
0.0
 11
181.5169472713907
 21
272.2869845187537
 31
0.0
  0
LINE
  5
182
330
1F
100
AcDbEntity
  8
0
  6
Continuous
 62
     2
100
AcDbLine
 10
180.820150327724
 20
272.1977695674929
 30
0.0
 11
180.8201504650968
 21
272.1934391846594
 31
0.0
  0
LINE
  5
183
330
1F
100
AcDbEntity
  8
0
  6
Continuous
 62
     7
100
AcDbLine
 10
181.4530155822677
 20
271.9181981171701
 30
0.0
 11
181.4530155822677
 21
271.9138679901508
 31
0.0
  0
LINE
  5
184
330
1F
100
AcDbEntity
  8
0
  6
Continuous
 62
     7
100
AcDbLine
 10
181.3057016695205
 20
271.9918550735437
 30
0.0
 11
181.3057016695205
 21
271.9875249465245
 31
0.0
  0
LINE
  5
185
330
1F
100
AcDbEntity
  8
0
  6
Continuous
 62
     7
100
AcDbLine
 10
181.0483215776187
 20
272.1205451194945
 30
0.0
 11
181.0483215776187
 21
272.1162149924754
 31
0.0
  0
LINE
  5
186
330
1F
100
AcDbEntity
  8
0
  6
Continuous
 62
     7
100
AcDbLine
 10
181.4530155822677
 20
271.9181981171701
 30
0.0
 11
181.7103956741696
 21
271.7895080712191
 31
0.0
  0
LINE
  5
187
330
1F
100
AcDbEntity
  8
0
  6
Continuous
 62
     2
100
AcDbLine
 10
181.487774485056
 20
271.2746989853773
 30
0.0
 11
181.487774485056
 21
271.270368858358
 31
0.0
  0
LINE
  5
188
330
1F
100
AcDbEntity
  8
0
  6
Continuous
 62
     7
100
AcDbLine
 10
181.7103956741696
 20
271.7851779442
 30
0.0
 11
181.4530155822677
 21
271.9138679901508
 31
0.0
  0
LINE
  5
189
330
1F
100
AcDbEntity
  8
0
  6
Continuous
 62
     7
100
AcDbLine
 10
181.5658560567933
 20
271.4198341426659
 30
0.0
 11
180.506148742421
 21
271.9496877998521
 31
0.0
  0
LINE
  5
18A
330
1F
100
AcDbEntity
  8
0
  6
Continuous
 62
     7
100
AcDbLine
 10
184.6055303165578
 20
238.501028188908
 30
0.0
 11
184.6055303165578
 21
264.4817903024415
 31
0.0
  0
LINE
  5
18B
330
1F
100
AcDbEntity
  8
0
  6
Continuous
 62
     7
100
AcDbLine
 10
195.0000000000001
 20
269.6790251441627
 30
0.0
 11
183.1913167541849
 21
275.5833667670703
 31
0.0
  0
LINE
  5
18C
330
1F
100
AcDbEntity
  8
0
  6
Continuous
 62
     7
100
AcDbLine
 10
161.8720473014105
 20
277.2981007114479
 30
0.0
 11
174.246415972175
 21
271.1109163760655
 31
0.0
  0
LINE
  5
18D
330
1F
100
AcDbEntity
  8
0
  6
Continuous
 62
     7
100
AcDbLine
 10
171.8422529161409
 20
279.5258478785236
 30
0.0
 11
175.095304915937
 21
277.8993218786255
 31
0.0
  0
LINE
  5
18E
330
1F
100
AcDbEntity
  8
0
  6
Continuous
 62
     7
100
AcDbLine
 10
171.7839577524333
 20
277.6733118257938
 30
0.0
 11
173.2136212813533
 21
276.9584800613337
 31
0.0
  0
LINE
  5
18F
330
1F
100
AcDbEntity
  8
0
  6
Continuous
 62
     7
100
AcDbLine
 10
171.8422529161413
 20
278.0762789770914
 30
0.0
 11
173.6457360145049
 21
277.1745374279095
 31
0.0
  0
LINE
  5
190
330
1F
100
AcDbEntity
  8
0
  6
Continuous
 62
     7
100
AcDbLine
 10
167.3013195500001
 20
275.4319927245772
 30
0.0
 11
171.7839577524333
 21
277.6733118257938
 31
0.0
  0
LINE
  5
191
330
1F
100
AcDbEntity
  8
0
  6
Continuous
 62
     7
100
AcDbLine
 10
165.5490025635808
 20
278.7473088065419
 30
0.0
 11
163.4276822200212
 21
279.8079689783218
 31
0.0
  0
LINE
  5
192
330
1F
100
AcDbEntity
  8
0
  6
Continuous
 62
     7
100
AcDbLine
 10
163.4276822200211
 20
278.0759181707533
 30
0.0
 11
163.4276822200212
 21
279.8079689783218
 31
0.0
  0
LINE
  5
193
330
1F
100
AcDbEntity
  8
0
  6
Continuous
 62
     2
100
AcDbLine
 10
165.5490025635808
 20
277.0152579989734
 30
0.0
 11
165.5490025635808
 21
278.7473088065419
 31
0.0
  0
LINE
  5
194
330
1F
100
AcDbEntity
  8
0
  6
Continuous
 62
     7
100
AcDbLine
 10
163.4276822200211
 20
278.0759181707533
 30
0.0
 11
165.5490025635808
 21
277.0152579989734
 31
0.0
  0
LINE
  5
195
330
1F
100
AcDbEntity
  8
0
  6
Continuous
 62
     7
100
AcDbLine
 10
179.6120041815004
 20
272.1714580846726
 30
0.0
 11
178.8037284464466
 21
270.6662949564334
 31
0.0
  0
LINE
  5
196
330
1F
100
AcDbEntity
  8
0
  6
Continuous
 62
     7
100
AcDbLine
 10
179.6970307438215
 20
272.1332749305311
 30
0.0
 11
178.948668071067
 21
270.7396813179432
 31
0.0
  0
LINE
  5
197
330
1F
100
AcDbEntity
  8
0
  6
Continuous
 62
     2
100
AcDbLine
 10
179.6175757590195
 20
271.3627722379898
 30
0.0
 11
179.6175757590195
 21
271.3584421109707
 31
0.0
  0
LINE
  5
198
330
1F
100
AcDbEntity
  8
0
  6
Continuous
 62
     2
100
AcDbLine
 10
179.7423028711453
 20
271.5950378400879
 30
0.0
 11
179.7423028711453
 21
271.5907077130686
 31
0.0
  0
LINE
  5
199
330
1F
100
AcDbEntity
  8
0
  6
Continuous
 62
     7
100
AcDbLine
 10
178.948668071067
 20
270.7396813179432
 30
0.0
 11
178.948668071067
 21
270.7353511909241
 31
0.0
  0
LINE
  5
19A
330
1F
100
AcDbEntity
  8
0
  6
Continuous
 62
     7
100
AcDbLine
 10
180.0475353320796
 20
271.0004778723794
 30
0.0
 11
179.4702611799391
 21
271.2891149484497
 31
0.0
  0
LINE
  5
19B
330
1F
100
AcDbEntity
  8
0
  6
Continuous
 62
     2
100
AcDbLine
 10
179.800698265855
 20
271.8424296758826
 30
0.0
 11
179.8006982148255
 21
271.8380991869257
 31
0.0
  0
LINE
  5
19C
330
1F
100
AcDbEntity
  8
0
  6
Continuous
 62
     7
100
AcDbLine
 10
179.6120041815004
 20
272.1757882116917
 30
0.0
 11
179.6120041815004
 21
272.1714580846726
 31
0.0
  0
LINE
  5
19D
330
1F
100
AcDbEntity
  8
0
  6
Continuous
 62
     7
100
AcDbLine
 10
175.3777868220736
 20
278.0405628316937
 30
0.0
 11
181.7417478527526
 21
274.8585823163543
 31
0.0
  0
LINE
  5
19E
330
1F
100
AcDbEntity
  8
0
  6
Continuous
 62
     7
100
AcDbLine
 10
183.1913167541849
 20
275.5833667670703
 30
0.0
 11
181.7417478527526
 21
274.8585823163543
 31
0.0
  0
LINE
  5
19F
330
1F
100
AcDbEntity
  8
0
  6
Continuous
 62
     7
100
AcDbLine
 10
181.7358552962427
 20
271.1095325273013
 30
0.0
 11
178.948668071067
 21
270.7353511909241
 31
0.0
  0
LINE
  5
1A0
330
1F
100
AcDbEntity
  8
0
  6
Continuous
 62
     7
100
AcDbLine
 10
178.948668071067
 20
270.7396813179432
 30
0.0
 11
181.7358552962428
 21
271.1138626543205
 31
0.0
  0
LINE
  5
1A1
330
1F
100
AcDbEntity
  8
0
  6
Continuous
 62
     7
100
AcDbLine
 10
182.6291575936177
 20
272.5765125013992
 30
0.0
 11
179.6120041815004
 21
272.1714580846726
 31
0.0
  0
LINE
  5
1A2
330
1F
100
AcDbEntity
  8
0
  6
Continuous
 62
     7
100
AcDbLine
 10
182.4842179689974
 20
272.5074562669084
 30
0.0
 11
179.6970307438215
 21
272.1332749305311
 31
0.0
  0
LINE
  5
1A3
330
1F
100
AcDbEntity
  8
0
  6
Continuous
 62
     7
100
AcDbLine
 10
180.7841082274818
 20
271.3644341930612
 30
0.0
 11
180.0642050051796
 21
271.7243858042123
 31
0.0
  0
LINE
  5
1A4
330
1F
100
AcDbEntity
  8
0
  6
Continuous
 62
     7
100
AcDbLine
 10
180.6168300645437
 20
271.1534441163694
 30
0.0
 11
179.7423028711453
 21
271.5907077130686
 31
0.0
  0
LINE
  5
1A5
330
1F
100
AcDbEntity
  8
0
  6
Continuous
 62
     7
100
AcDbLine
 10
180.6367936484014
 20
271.2951070305402
 30
0.0
 11
179.7197159173181
 21
271.7536464092094
 31
0.0
  0
LINE
  5
1A6
330
1F
100
AcDbEntity
  8
0
  6
Continuous
 62
     7
100
AcDbLine
 10
179.7423028711453
 20
271.5950378400879
 30
0.0
 11
180.6168300645437
 21
271.1577742433886
 31
0.0
  0
LINE
  5
1A7
330
1F
100
AcDbEntity
  8
0
  6
Continuous
 62
     7
100
AcDbLine
 10
180.5120665779956
 20
271.0628414493021
 30
0.0
 11
179.5949882920648
 21
271.5213805505475
 31
0.0
  0
LINE
  5
1A8
330
1F
100
AcDbEntity
  8
0
  6
Continuous
 62
     7
100
AcDbLine
 10
179.6175757590195
 20
271.3627722379898
 30
0.0
 11
180.1948499111601
 21
271.0741351619196
 31
0.0
  0
LINE
  5
1A9
330
1F
100
AcDbEntity
  8
0
  6
Continuous
 62
     7
100
AcDbLine
 10
180.1948499111601
 20
271.0698050349004
 30
0.0
 11
179.6175757590195
 21
271.3584421109707
 31
0.0
  0
LINE
  5
1AA
330
1F
100
AcDbEntity
  8
0
  6
Continuous
 62
     7
100
AcDbLine
 10
180.5396663247356
 20
271.7119571400742
 30
0.0
 11
180.0642050051796
 21
271.7287159312315
 31
0.0
  0
LINE
  5
1AB
330
1F
100
AcDbEntity
  8
0
  6
Continuous
 62
     7
100
AcDbLine
 10
180.0642050051796
 20
271.7287159312315
 30
0.0
 11
180.0642050051796
 21
271.7243858042123
 31
0.0
  0
LINE
  5
1AC
330
1F
100
AcDbEntity
  8
0
  6
Continuous
 62
     7
100
AcDbLine
 10
180.0642050051796
 20
271.7287159312315
 30
0.0
 11
180.7841082274818
 21
271.3687643200805
 31
0.0
  0
LINE
  5
1AD
330
1F
100
AcDbEntity
  8
0
  6
Continuous
 62
     7
100
AcDbLine
 10
180.3149751909997
 20
271.8199721924705
 30
0.0
 11
179.8006982148255
 21
271.8380991869257
 31
0.0
  0
LINE
  5
1AE
330
1F
100
AcDbEntity
  8
0
  6
Continuous
 62
     7
100
AcDbLine
 10
179.800698265855
 20
271.8424296758826
 30
0.0
 11
180.3149751909997
 21
271.8243023194897
 31
0.0
  0
LINE
  5
1AF
330
1F
100
AcDbEntity
  8
0
  6
Continuous
 62
     7
100
AcDbLine
 10
157.0054260256339
 20
258.8205647291721
 30
0.0
 11
158.0534051433564
 21
259.3445542880335
 31
0.0
  0
LINE
  5
1B0
330
1F
100
AcDbEntity
  8
0
  6
Continuous
 62
     7
100
AcDbLine
 10
160.4224783999778
 20
257.1120385420002
 30
0.0
 11
157.0054260256339
 21
258.8205647291721
 31
0.0
  0
LINE
  5
1B1
330
1F
100
AcDbEntity
  8
0
  6
Continuous
 62
     7
100
AcDbLine
 10
157.0054260256338
 20
257.0019113812248
 30
0.0
 11
157.0054260256339
 21
258.8205647291721
 31
0.0
  0
LINE
  5
1B2
330
1F
100
AcDbEntity
  8
0
  6
Continuous
 62
     7
100
AcDbLine
 10
157.0054260256338
 20
257.0019113812248
 30
0.0
 11
161.1295851811647
 21
254.9398318034594
 31
0.0
  0
LINE
  5
1B3
330
1F
100
AcDbEntity
  8
0
  6
Continuous
 62
     7
100
AcDbLine
 10
153.0456280509903
 20
272.8691978515678
 30
0.0
 11
148.7676320248116
 21
275.0081958646572
 31
0.0
  0
LINE
  5
1B4
330
1F
100
AcDbEntity
  8
0
  6
Continuous
 62
     7
100
AcDbLine
 10
148.0958805826844
 20
274.6723201435935
 30
0.0
 11
153.0456280509903
 21
272.1974464094405
 31
0.0
  0
LINE
  5
1B5
330
1F
100
AcDbEntity
  8
0
  6
Continuous
 62
     7
100
AcDbLine
 10
161.1295851811648
 20
271.5762681893017
 30
0.0
 11
148.802987363871
 21
277.7395670979489
 31
0.0
  0
LINE
  5
1B6
330
1F
100
AcDbEntity
  8
0
  6
Continuous
 62
     2
100
AcDbLine
 10
149.4747388059982
 20
278.0754428190124
 30
0.0
 11
148.802987363871
 21
277.7395670979489
 31
0.0
  0
LINE
  5
1B7
330
1F
100
AcDbEntity
  8
0
  6
Continuous
 62
     7
100
AcDbLine
 10
156.899360008457
 20
274.363132217783
 30
0.0
 11
149.4747388059982
 21
278.0754428190124
 31
0.0
  0
LINE
  5
1B8
330
1F
100
AcDbEntity
  8
0
  6
Continuous
 62
     7
100
AcDbLine
 10
156.899360008457
 20
274.363132217783
 30
0.0
 11
158.1241158214743
 21
274.9755101242915
 31
0.0
  0
LINE
  5
1B9
330
1F
100
AcDbEntity
  8
0
  6
Continuous
 62
     7
100
AcDbLine
 10
157.0054260256341
 20
277.353508370159
 30
0.0
 11
164.7836006186872
 21
281.2425956666856
 31
0.0
  0
LINE
  5
1BA
330
1F
100
AcDbEntity
  8
0
  6
Continuous
 62
     7
100
AcDbLine
 10
160.422478399978
 20
273.975240049378
 30
0.0
 11
167.4935462118435
 21
270.4397061434453
 31
0.0
  0
LINE
  5
1BB
330
1F
100
AcDbEntity
  8
0
  6
Continuous
 62
     7
100
AcDbLine
 10
161.8720473014104
 20
275.5660499038789
 30
0.0
 11
172.7968470707426
 21
270.1036500192128
 31
0.0
  0
LINE
  5
1BC
330
1F
100
AcDbEntity
  8
0
  6
Continuous
 62
     7
100
AcDbLine
 10
160.4224783999779
 20
270.5111384342404
 30
0.0
 11
167.4935462118434
 21
266.9756045283075
 31
0.0
  0
LINE
  5
1BD
330
1F
100
AcDbEntity
  8
0
  6
Continuous
 62
     7
100
AcDbLine
 10
175.3777868220736
 20
278.0405628316937
 30
0.0
 11
168.7309830789203
 21
274.7171609601172
 31
0.0
  0
LINE
  5
1BE
330
1F
100
AcDbEntity
  8
0
  6
Continuous
 62
     7
100
AcDbLine
 10
168.7309830789203
 20
274.7171609601172
 30
0.0
 11
165.1954491729876
 21
276.4849279130835
 31
0.0
  0
LINE
  5
1BF
330
1F
100
AcDbEntity
  8
0
  6
Continuous
 62
     7
100
AcDbLine
 10
169.9330646069374
 20
280.585786437627
 30
0.0
 11
166.2561093447674
 21
278.7473088065419
 31
0.0
  0
LINE
  5
1C0
330
1F
100
AcDbEntity
  8
0
  6
Continuous
 62
     7
100
AcDbLine
 10
165.1954491729876
 20
276.4849279130835
 30
0.0
 11
166.2561093447673
 21
277.0152579989734
 31
0.0
  0
LINE
  5
1C1
330
1F
100
AcDbEntity
  8
0
  6
Continuous
 62
     7
100
AcDbLine
 10
161.8720473014105
 20
277.2981007114479
 30
0.0
 11
161.8720473014104
 21
275.5660499038789
 31
0.0
  0
LINE
  5
1C2
330
1F
100
AcDbEntity
  8
0
  6
Continuous
 62
     7
100
AcDbLine
 10
161.1295851811648
 20
273.6216866587847
 30
0.0
 11
161.1295851811648
 21
270.8646918248338
 31
0.0
  0
LINE
  5
1C3
330
1F
100
AcDbEntity
  8
0
  6
Continuous
 62
     2
100
AcDbLine
 10
169.9330646069374
 20
280.585786437627
 30
0.0
 11
169.9330646069374
 21
278.8537356300585
 31
0.0
  0
LINE
  5
1C4
330
1F
100
AcDbEntity
  8
0
  6
Continuous
 62
     2
100
AcDbLine
 10
166.2561093447673
 20
277.0152579989734
 30
0.0
 11
166.2561093447674
 21
278.7473088065419
 31
0.0
  0
LINE
  5
1C5
330
1F
100
AcDbEntity
  8
0
  6
Continuous
 62
     7
100
AcDbLine
 10
169.9330646069374
 20
278.8537356300585
 30
0.0
 11
171.8422529161409
 21
279.8083297846602
 31
0.0
  0
LINE
  5
1C6
330
1F
100
AcDbEntity
  8
0
  6
Continuous
 62
     7
100
AcDbLine
 10
171.8422529161413
 20
278.0762789770914
 30
0.0
 11
171.8422529161409
 21
279.8083297846602
 31
0.0
  0
LINE
  5
1C7
330
1F
100
AcDbEntity
  8
0
  6
Continuous
 62
     7
100
AcDbLine
 10
171.8422529161413
 20
277.6441642439397
 30
0.0
 11
171.8422529161413
 21
278.0762789770914
 31
0.0
  0
LINE
  5
1C8
330
1F
100
AcDbEntity
  8
0
  6
Continuous
 62
     7
100
AcDbLine
 10
163.4276822200211
 20
278.0759181707533
 30
0.0
 11
161.8720473014105
 21
277.2981007114479
 31
0.0
  0
LINE
  5
1C9
330
1F
100
AcDbEntity
  8
0
  6
Continuous
 62
     7
100
AcDbLine
 10
170.0795112163441
 20
280.7625631329237
 30
0.0
 11
170.0795112163441
 21
279.0305123253551
 31
0.0
  0
LINE
  5
1CA
330
1F
100
AcDbEntity
  8
0
  6
Continuous
 62
     7
100
AcDbLine
 10
170.0795112163441
 20
280.6897006345586
 30
0.0
 11
171.8422529161409
 21
279.8083297846602
 31
0.0
  0
LINE
  5
1CB
330
1F
100
AcDbEntity
  8
0
  6
Continuous
 62
     7
100
AcDbLine
 10
169.9330646069374
 20
280.9393398282202
 30
0.0
 11
167.8117442633778
 21
282.0000000000001
 31
0.0
  0
LINE
  5
1CC
330
1F
100
AcDbEntity
  8
0
  6
Continuous
 62
     7
100
AcDbLine
 10
165.5402681077176
 20
280.8642619221704
 30
0.0
 11
164.7836006186872
 21
281.2425956666856
 31
0.0
  0
LINE
  5
1CD
330
1F
100
AcDbEntity
  8
0
  6
Continuous
 62
     7
100
AcDbLine
 10
163.4276822200212
 20
279.8079689783218
 30
0.0
 11
167.8117442633778
 21
282.0000000000001
 31
0.0
  0
LINE
  5
1CE
330
1F
100
AcDbEntity
  8
0
  6
Continuous
 62
     7
100
AcDbLine
 10
160.4224783999779
 20
270.5111384342404
 30
0.0
 11
161.1295851811648
 21
270.8646918248338
 31
0.0
  0
LINE
  5
1CF
330
1F
100
AcDbEntity
  8
0
  6
Continuous
 62
     7
100
AcDbLine
 10
160.422478399978
 20
274.8412654531628
 30
0.0
 11
160.422478399978
 21
273.975240049378
 31
0.0
  0
LINE
  5
1D0
330
1F
100
AcDbEntity
  8
0
  6
Continuous
 62
     7
100
AcDbLine
 10
161.8720473014104
 20
275.5660499038789
 30
0.0
 11
160.422478399978
 21
274.8412654531628
 31
0.0
  0
LINE
  5
1D1
330
1F
100
AcDbEntity
  8
0
  6
Continuous
 62
     7
100
AcDbLine
 10
161.2261951298021
 20
275.2431238180749
 30
0.0
 11
157.0054260256341
 21
277.353508370159
 31
0.0
  0
LINE
  5
1D2
330
1F
100
AcDbEntity
  8
0
  6
Continuous
 62
     7
100
AcDbLine
 10
157.0054260256341
 20
277.353508370159
 30
0.0
 11
157.0054260256341
 21
275.5348550222118
 31
0.0
  0
LINE
  5
1D3
330
1F
100
AcDbEntity
  8
0
  6
Continuous
 62
     7
100
AcDbLine
 10
161.1295851811648
 20
273.4727754444463
 30
0.0
 11
157.0054260256341
 21
275.5348550222118
 31
0.0
  0
LINE
  5
1D4
330
1F
100
AcDbEntity
  8
0
  6
Continuous
 62
     7
100
AcDbLine
 10
153.0456280509903
 20
272.1974464094405
 30
0.0
 11
153.0456280509903
 21
273.9294972170094
 31
0.0
  0
LINE
  5
1D5
330
1F
100
AcDbEntity
  8
0
  6
Continuous
 62
     7
100
AcDbLine
 10
148.0958805826845
 20
276.4043709511624
 30
0.0
 11
148.0958805826844
 21
274.6723201435935
 31
0.0
  0
LINE
  5
1D6
330
1F
100
AcDbEntity
  8
0
  6
Continuous
 62
     7
100
AcDbLine
 10
153.0456280509903
 20
273.9294972170094
 30
0.0
 11
148.0958805826845
 21
276.4043709511624
 31
0.0
  0
LINE
  5
1D7
330
1F
100
AcDbEntity
  8
0
  6
Continuous
 62
     7
100
AcDbLine
 10
148.7676320248116
 20
275.0081958646572
 30
0.0
 11
148.7676320248116
 21
276.0684952300989
 31
0.0
  0
LINE
  5
1D8
330
1F
100
AcDbEntity
  8
0
  6
Continuous
 62
     7
100
AcDbLine
 10
148.7676320248116
 20
275.0081958646572
 30
0.0
 11
148.0958805826844
 21
274.6723201435935
 31
0.0
  0
LINE
  5
1D9
330
1F
100
AcDbEntity
  8
0
  6
Continuous
 62
     7
100
AcDbLine
 10
148.1330980194983
 20
278.1606481806589
 30
0.0
 11
147.4613465773711
 21
277.8247724595952
 31
0.0
  0
LINE
  5
1DA
330
1F
100
AcDbEntity
  8
0
  6
Continuous
 62
     7
100
AcDbLine
 10
146.6816670203114
 20
276.2021510583754
 30
0.0
 11
146.6816670203112
 21
267.6284995609095
 31
0.0
  0
LINE
  5
1DB
330
1F
100
AcDbEntity
  8
0
  6
Continuous
 62
     7
100
AcDbLine
 10
189.9088311754569
 20
264.5353645205375
 30
0.0
 11
194.2928932188135
 21
266.7273955422157
 31
0.0
  0
LINE
  5
1DC
330
1F
100
AcDbEntity
  8
0
  6
Continuous
 62
     7
100
AcDbLine
 10
189.9088311754569
 20
262.3703010110766
 30
0.0
 11
186.0117168584267
 21
264.3188581695916
 31
0.0
  0
LINE
  5
1DD
330
1F
100
AcDbEntity
  8
0
  6
Continuous
 62
     7
100
AcDbLine
 10
153.0456280509902
 20
265.2692431791651
 30
0.0
 11
148.0958805826843
 21
267.7441169133182
 31
0.0
  0
LINE
  5
1DE
330
1F
100
AcDbEntity
  8
0
  6
Continuous
 62
     7
100
AcDbLine
 10
184.6055303165578
 20
264.4817903024415
 30
0.0
 11
172.7968470707426
 21
270.3861319253492
 31
0.0
  0
LINE
  5
1DF
330
1F
100
AcDbEntity
  8
0
  6
Continuous
 62
     7
100
AcDbLine
 10
161.1295851811648
 20
270.8646918248338
 30
0.0
 11
167.4935462118435
 21
267.6827113094944
 31
0.0
  0
LINE
  5
1E0
330
1F
100
AcDbEntity
  8
0
  6
Continuous
 62
     7
100
AcDbLine
 10
181.820881858564
 20
271.0713493731599
 30
0.0
 11
178.801222498382
 21
270.6659585316007
 31
0.0
  0
LINE
  5
1E1
330
1F
100
AcDbEntity
  8
0
  6
Continuous
 62
     7
100
AcDbLine
 10
178.801222498382
 20
270.6659585316007
 30
0.0
 11
179.6120041815004
 21
272.1757882116917
 31
0.0
  0
LINE
  5
1E2
330
1F
100
AcDbEntity
  8
0
  6
Continuous
 62
     7
100
AcDbLine
 10
179.6120041815004
 20
272.1757882116917
 30
0.0
 11
182.6316635416823
 21
272.5811790532509
 31
0.0
  0
LINE
  5
1E3
330
1F
100
AcDbEntity
  8
0
  6
Continuous
 62
     7
100
AcDbLine
 10
167.4935462118435
 20
270.4397061434453
 30
0.0
 11
167.4935462118434
 21
266.9756045283075
 31
0.0
  0
LINE
  5
1E4
330
1F
100
AcDbEntity
  8
0
  6
Continuous
 62
     7
100
AcDbLine
 10
194.2928932188135
 20
266.7273955422157
 30
0.0
 11
194.2928932188135
 21
268.4594463497849
 31
0.0
  0
LINE
  5
1E5
330
1F
100
AcDbEntity
  8
0
  6
Continuous
 62
     7
100
AcDbLine
 10
192.5608424112443
 20
267.5934209460004
 30
0.0
 11
194.2928932188135
 21
266.7273955422157
 31
0.0
  0
LINE
  5
1E6
330
1F
100
AcDbEntity
  8
0
  6
Continuous
 62
     7
100
AcDbLine
 10
194.2928932188135
 20
268.4594463497849
 30
0.0
 11
185.3126370977444
 21
263.9693182892505
 31
0.0
  0
LINE
  5
1E7
330
1F
100
AcDbEntity
  8
0
  6
Continuous
 62
     7
100
AcDbLine
 10
188.1767803678878
 20
265.4013899243221
 30
0.0
 11
189.9088311754569
 21
264.5353645205375
 31
0.0
  0
LINE
  5
1E8
330
1F
100
AcDbEntity
  8
0
  6
Continuous
 62
     7
100
AcDbLine
 10
195.0000000000001
 20
269.6790251441627
 30
0.0
 11
184.6055303165578
 21
264.4817903024415
 31
0.0
  0
LINE
  5
1E9
330
1F
100
AcDbEntity
  8
0
  6
Continuous
 62
     7
100
AcDbLine
 10
148.0958805826843
 20
267.7441169133182
 30
0.0
 11
148.0958805826843
 21
266.0120661057492
 31
0.0
  0
LINE
  5
1EA
330
1F
100
AcDbEntity
  8
0
  6
Continuous
 62
     7
100
AcDbLine
 10
148.7676320248115
 20
266.3479418268129
 30
0.0
 11
148.7676320248116
 21
267.4082411922545
 31
0.0
  0
LINE
  5
1EB
330
1F
100
AcDbEntity
  8
0
  6
Continuous
 62
     7
100
AcDbLine
 10
153.0456280509902
 20
264.2089438137235
 30
0.0
 11
148.7676320248115
 21
266.3479418268129
 31
0.0
  0
LINE
  5
1EC
330
1F
100
AcDbEntity
  8
0
  6
Continuous
 62
     7
100
AcDbLine
 10
148.0958805826843
 20
266.0120661057492
 30
0.0
 11
153.0456280509902
 21
263.5371923715962
 31
0.0
  0
LINE
  5
1ED
330
1F
100
AcDbEntity
  8
0
  6
Continuous
 62
     7
100
AcDbLine
 10
148.7676320248115
 20
266.3479418268129
 30
0.0
 11
148.0958805826843
 21
266.0120661057492
 31
0.0
  0
LINE
  5
1EE
330
1F
100
AcDbEntity
  8
0
  6
Continuous
 62
     7
100
AcDbLine
 10
195.0
 20
243.6982630306291
 30
0.0
 11
195.0000000000001
 21
269.6790251441627
 31
0.0
  0
LINE
  5
1EF
330
1F
100
AcDbEntity
  8
0
  6
Continuous
 62
     7
100
AcDbLine
 10
184.6055303165578
 20
238.501028188908
 30
0.0
 11
195.0
 21
243.6982630306291
 31
0.0
  0
LINE
  5
1F0
330
1F
100
AcDbEntity
  8
0
  6
Continuous
 62
     7
100
AcDbLine
 10
194.2928932188135
 20
244.2107350438204
 30
0.0
 11
185.3126370977443
 21
239.7206069832858
 31
0.0
  0
LINE
  5
1F1
330
1F
100
AcDbEntity
  8
0
  6
Continuous
 62
     7
100
AcDbLine
 10
185.0651497243291
 20
259.0824348817282
 30
0.0
 11
190.6159379566434
 21
261.8578289978854
 31
0.0
  0
LINE
  5
1F2
330
1F
100
AcDbEntity
  8
0
  6
Continuous
 62
     7
100
AcDbLine
 10
190.6159379566434
 20
244.9703336240887
 30
0.0
 11
194.5403805922288
 21
246.9325549418813
 31
0.0
  0
LINE
  5
1F3
330
1F
100
AcDbEntity
  8
0
  6
Continuous
 62
     7
100
AcDbLine
 10
194.5403805922288
 20
246.9325549418813
 30
0.0
 11
194.5403805922288
 21
265.985113825139
 31
0.0
  0
LINE
  5
1F4
330
1F
100
AcDbEntity
  8
0
  6
Continuous
 62
     7
100
AcDbLine
 10
190.6159379566434
 20
244.9703336240887
 30
0.0
 11
190.6159379566434
 21
247.1353971335499
 31
0.0
  0
LINE
  5
1F5
330
1F
100
AcDbEntity
  8
0
  6
Continuous
 62
     7
100
AcDbLine
 10
190.6159379566434
 20
261.8578289978854
 30
0.0
 11
190.6159379566434
 21
264.0228925073463
 31
0.0
  0
LINE
  5
1F6
330
1F
100
AcDbEntity
  8
0
  6
Continuous
 62
     7
100
AcDbLine
 10
194.5403805922288
 20
265.985113825139
 30
0.0
 11
190.6159379566434
 21
264.0228925073463
 31
0.0
  0
LINE
  5
1F7
330
1F
100
AcDbEntity
  8
0
  6
Continuous
 62
     7
100
AcDbLine
 10
194.2928932188135
 20
244.2107350438204
 30
0.0
 11
194.2928932188135
 21
245.9427858513893
 31
0.0
  0
LINE
  5
1F8
330
1F
100
AcDbEntity
  8
0
  6
Continuous
 62
     7
100
AcDbLine
 10
190.6159379566434
 20
247.1353971335499
 30
0.0
 11
185.0651497243291
 21
244.3600030173927
 31
0.0
  0
LINE
  5
1F9
330
1F
100
AcDbEntity
  8
0
  6
Continuous
 62
     7
100
AcDbLine
 10
194.2928932188135
 20
244.2107350438204
 30
0.0
 11
192.5608424112445
 21
245.0767604476048
 31
0.0
  0
LINE
  5
1FA
330
1F
100
AcDbEntity
  8
0
  6
Continuous
 62
     7
100
AcDbLine
 10
189.9088311754569
 20
264.5353645205375
 30
0.0
 11
189.9088311754569
 21
262.3703010110766
 31
0.0
  0
LINE
  5
1FB
330
1F
100
AcDbEntity
  8
0
  6
Continuous
 62
     7
100
AcDbLine
 10
185.3126370977444
 20
263.9693182892505
 30
0.0
 11
185.3126370977444
 21
260.0722039722202
 31
0.0
  0
LINE
  5
1FC
330
1F
100
AcDbEntity
  8
0
  6
Continuous
 62
     7
100
AcDbLine
 10
185.0651497243291
 20
259.0824348817282
 30
0.0
 11
185.0651497243291
 21
244.3600030173927
 31
0.0
  0
LINE
  5
1FD
330
1F
100
AcDbEntity
  8
0
  6
Continuous
 62
     7
100
AcDbLine
 10
189.9088311754569
 20
262.3703010110766
 30
0.0
 11
185.3126370977444
 21
260.0722039722202
 31
0.0
  0
LINE
  5
1FE
330
1F
100
AcDbEntity
  8
0
  6
Continuous
 62
     7
100
AcDbLine
 10
194.2928932188135
 20
245.9427858513893
 30
0.0
 11
189.9088311754569
 21
243.750754829711
 31
0.0
  0
LINE
  5
1FF
330
1F
100
AcDbEntity
  8
0
  6
Continuous
 62
     7
100
AcDbLine
 10
185.3126370977443
 20
243.6177213003159
 30
0.0
 11
185.3126370977443
 21
239.7206069832858
 31
0.0
  0
LINE
  5
200
330
1F
100
AcDbEntity
  8
0
  6
Continuous
 62
     7
100
AcDbLine
 10
185.3126370977443
 20
243.6177213003159
 30
0.0
 11
189.9088311754569
 21
245.9158183391722
 31
0.0
  0
LINE
  5
201
330
1F
100
AcDbEntity
  8
0
  6
Continuous
 62
     7
100
AcDbLine
 10
184.6055303165578
 20
238.501028188908
 30
0.0
 11
172.7968470707423
 21
244.4053698118158
 31
0.0
  0
LINE
  5
202
330
1F
100
AcDbEntity
  8
0
  6
Continuous
 62
     7
100
AcDbLine
 10
172.7968470707424
 20
246.1374206193847
 30
0.0
 11
160.4224783999778
 21
252.3246049547672
 31
0.0
  0
LINE
  5
203
330
1F
100
AcDbEntity
  8
0
  6
Continuous
 62
     7
100
AcDbLine
 10
161.8720473014101
 20
251.599820504051
 30
0.0
 11
161.8720473014102
 21
251.3173385979144
 31
0.0
  0
LINE
  5
204
330
1F
100
AcDbEntity
  8
0
  6
Continuous
 62
     7
100
AcDbLine
 10
167.4935462118433
 20
253.1191980677567
 30
0.0
 11
167.4935462118433
 21
249.6550964526188
 31
0.0
  0
LINE
  5
205
330
1F
100
AcDbEntity
  8
0
  6
Continuous
 62
     7
100
AcDbLine
 10
165.5490025635805
 20
248.948891687278
 30
0.0
 11
166.0789718431318
 21
249.2138763270536
 31
0.0
  0
LINE
  5
206
330
1F
100
AcDbEntity
  8
0
  6
Continuous
 62
     7
100
AcDbLine
 10
161.1295851811647
 20
256.301178583096
 30
0.0
 11
161.1295851811646
 21
253.544183749145
 31
0.0
  0
LINE
  5
207
330
1F
100
AcDbEntity
  8
0
  6
Continuous
 62
     7
100
AcDbLine
 10
161.1295851811646
 20
253.544183749145
 30
0.0
 11
167.4935462118433
 21
250.3622032338055
 31
0.0
  0
LINE
  5
208
330
1F
100
AcDbEntity
  8
0
  6
Continuous
 62
     7
100
AcDbLine
 10
167.4935462118433
 20
249.6550964526188
 30
0.0
 11
160.4224783999778
 21
253.1906303585515
 31
0.0
  0
LINE
  5
209
330
1F
100
AcDbEntity
  8
0
  6
Continuous
 62
     7
100
AcDbLine
 10
160.4224783999778
 20
253.1906303585515
 30
0.0
 11
160.4224783999778
 21
252.3246049547672
 31
0.0
  0
LINE
  5
20A
330
1F
100
AcDbEntity
  8
0
  6
Continuous
 62
     7
100
AcDbLine
 10
160.4224783999778
 20
256.6547319736894
 30
0.0
 11
167.4935462118433
 21
253.1191980677567
 31
0.0
  0
LINE
  5
20B
330
1F
100
AcDbEntity
  8
0
  6
Continuous
 62
     7
100
AcDbLine
 10
161.1295851811646
 20
253.544183749145
 30
0.0
 11
160.4224783999778
 21
253.1906303585515
 31
0.0
  0
LINE
  5
20C
330
1F
100
AcDbEntity
  8
0
  6
Continuous
 62
     7
100
AcDbLine
 10
161.8720473014102
 20
251.3173385979144
 30
0.0
 11
172.7968470707424
 21
245.8549387132483
 31
0.0
  0
LINE
  5
20D
330
1F
100
AcDbEntity
  8
0
  6
Continuous
 62
     7
100
AcDbLine
 10
185.0651497243291
 20
251.6701703758313
 30
0.0
 11
194.5403805922288
 21
246.9325549418813
 31
0.0
  0
LINE
  5
20E
330
1F
100
AcDbEntity
  8
0
  6
Continuous
 62
     7
100
AcDbLine
 10
162.7205754388344
 20
250.0095518590579
 30
0.0
 11
162.7205754388345
 21
250.8930745292022
 31
0.0
  0
LINE
  5
20F
330
1F
100
AcDbEntity
  8
0
  6
Continuous
 62
     2
100
AcDbLine
 10
165.5490025635805
 20
249.4788609668293
 30
0.0
 11
165.5490025635805
 21
248.948891687278
 31
0.0
  0
LINE
  5
210
330
1F
100
AcDbEntity
  8
0
  6
Continuous
 62
     7
100
AcDbLine
 10
185.0651497243291
 20
249.9107912497071
 30
0.0
 11
190.6159379566434
 21
247.1353971335499
 31
0.0
  0
LINE
  5
211
330
1F
100
AcDbEntity
  8
0
  6
Continuous
 62
     7
100
AcDbLine
 10
164.841895782394
 20
248.948891687278
 30
0.0
 11
162.7205754388344
 21
250.0095518590579
 31
0.0
  0
LINE
  5
212
330
1F
100
AcDbEntity
  8
0
  6
Continuous
 62
     2
100
AcDbLine
 10
164.841895782394
 20
249.8324143574226
 30
0.0
 11
164.841895782394
 21
248.948891687278
 31
0.0
  0
LINE
  5
213
330
1F
100
AcDbEntity
  8
0
  6
Continuous
 62
     7
100
AcDbLine
 10
189.9088311754569
 20
245.9158183391722
 30
0.0
 11
189.9088311754569
 21
243.750754829711
 31
0.0
  0
LINE
  5
214
330
1F
100
AcDbEntity
  8
0
  6
Continuous
 62
     7
100
AcDbLine
 10
187.7437676659957
 20
244.8332865844416
 30
0.0
 11
189.9088311754569
 21
243.750754829711
 31
0.0
  0
LINE
  5
215
330
1F
100
AcDbEntity
  8
0
  6
Continuous
 62
     7
100
AcDbLine
 10
172.7968470707424
 20
246.1374206193847
 30
0.0
 11
172.7968470707423
 21
244.4053698118158
 31
0.0
  0
LINE
  5
216
330
1F
100
AcDbEntity
  8
0
  6
Continuous
 62
     7
100
AcDbLine
 10
148.8029873638708
 20
263.9697631777764
 30
0.0
 11
160.4224783999778
 21
258.1600176597227
 31
0.0
  0
LINE
  5
217
330
1F
100
AcDbEntity
  8
0
  6
Continuous
 62
     7
100
AcDbLine
 10
174.246415972175
 20
271.1109163760655
 30
0.0
 11
172.7968470707426
 21
270.3861319253492
 31
0.0
  0
LINE
  5
218
330
1F
100
AcDbEntity
  8
0
  6
Continuous
 62
     7
100
AcDbLine
 10
172.7968470707426
 20
270.3861319253492
 30
0.0
 11
172.7968470707426
 21
268.6540811177804
 31
0.0
  0
LINE
  5
219
330
1F
100
AcDbEntity
  8
0
  6
Continuous
 62
     7
100
AcDbLine
 10
160.4224783999778
 20
256.6547319736894
 30
0.0
 11
160.4224783999779
 21
270.5111384342404
 31
0.0
  0
LINE
  5
21A
330
1F
100
AcDbEntity
  8
0
  6
Continuous
 62
     7
100
AcDbLine
 10
153.0456280509902
 20
263.5371923715962
 30
0.0
 11
153.0456280509902
 21
265.2692431791651
 31
0.0
  0
LINE
  5
21B
330
1F
100
AcDbEntity
  8
0
  6
Continuous
 62
     7
100
AcDbLine
 10
77.91760925223544
 20
229.3624318273708
 30
0.0
 11
77.91760925223544
 21
231.862431827371
 31
0.0
  0
LINE
  5
21C
330
1F
100
AcDbEntity
  8
0
  6
Continuous
 62
     7
100
AcDbLine
 10
85.01760925223546
 20
231.7124318273706
 30
0.0
 11
84.11760925223543
 21
231.7124318273706
 31
0.0
  0
LINE
  5
21D
330
1F
100
AcDbEntity
  8
0
  6
Continuous
 62
     7
100
AcDbLine
 10
84.11760925223543
 20
230.7124318273706
 30
0.0
 11
84.11760925223543
 21
231.7124318273706
 31
0.0
  0
LINE
  5
21E
330
1F
100
AcDbEntity
  8
0
  6
Continuous
 62
     7
100
AcDbLine
 10
85.01760925223546
 20
230.0124318273707
 30
0.0
 11
84.11760925223543
 21
230.0124318273707
 31
0.0
  0
LINE
  5
21F
330
1F
100
AcDbEntity
  8
0
  6
Continuous
 62
     7
100
AcDbLine
 10
80.16516744110028
 20
246.3124318273709
 30
0.0
 11
80.16516744110028
 21
234.4124318273709
 31
0.0
  0
LINE
  5
220
330
1F
100
AcDbEntity
  8
0
  6
Continuous
 62
     7
100
AcDbLine
 10
83.46760925223545
 20
229.3624318273708
 30
0.0
 11
83.46760925223545
 21
251.3624318273708
 31
0.0
  0
LINE
  5
221
330
1F
100
AcDbEntity
  8
0
  6
Continuous
 62
     7
100
AcDbLine
 10
84.11760925223543
 20
249.0124318273707
 30
0.0
 11
84.11760925223543
 21
250.0124318273707
 31
0.0
  0
LINE
  5
222
330
1F
100
AcDbEntity
  8
0
  6
Continuous
 62
     7
100
AcDbLine
 10
84.11760925223543
 20
231.7124318273706
 30
0.0
 11
84.11760925223543
 21
249.0124318273707
 31
0.0
  0
LINE
  5
223
330
1F
100
AcDbEntity
  8
0
  6
Continuous
 62
     7
100
AcDbLine
 10
84.11760925223543
 20
250.0124318273707
 30
0.0
 11
84.11760925223543
 21
250.7124318273706
 31
0.0
  0
LINE
  5
224
330
1F
100
AcDbEntity
  8
0
  6
Continuous
 62
     7
100
AcDbLine
 10
76.91760925223544
 20
249.862431827371
 30
0.0
 11
70.41760925223544
 21
249.862431827371
 31
0.0
  0
LINE
  5
225
330
1F
100
AcDbEntity
  8
0
  6
Continuous
 62
     7
100
AcDbLine
 10
85.01760925223546
 20
250.0124318273707
 30
0.0
 11
84.11760925223543
 21
250.0124318273707
 31
0.0
  0
LINE
  5
226
330
1F
100
AcDbEntity
  8
0
  6
Continuous
 62
     7
100
AcDbLine
 10
69.41760925223544
 20
225.3624318273707
 30
0.0
 11
69.41760925223544
 21
255.3624318273712
 31
0.0
  0
LINE
  5
227
330
1F
100
AcDbEntity
  8
0
  6
Continuous
 62
     7
100
AcDbLine
 10
70.06760925223541
 20
248.862431827371
 30
0.0
 11
70.06760925223541
 21
231.862431827371
 31
0.0
  0
LINE
  5
228
330
1F
100
AcDbEntity
  8
0
  6
Continuous
 62
     7
100
AcDbLine
 10
70.41760925223544
 20
254.3624318273712
 30
0.0
 11
70.41760925223544
 21
249.862431827371
 31
0.0
  0
LINE
  5
229
330
1F
100
AcDbEntity
  8
0
  6
Continuous
 62
     7
100
AcDbLine
 10
76.91760925223544
 20
252.3624318273708
 30
0.0
 11
76.91760925223544
 21
249.862431827371
 31
0.0
  0
LINE
  5
22A
330
1F
100
AcDbEntity
  8
0
  6
Continuous
 62
     7
100
AcDbLine
 10
73.36516744110027
 20
246.3124318273709
 30
0.0
 11
73.36516744110027
 21
243.5374318273709
 31
0.0
  0
LINE
  5
22B
330
1F
100
AcDbEntity
  8
0
  6
Continuous
 62
     7
100
AcDbLine
 10
73.36516744110027
 20
237.1874318273709
 30
0.0
 11
73.36516744110027
 21
234.4124318273709
 31
0.0
  0
LINE
  5
22C
330
1F
100
AcDbEntity
  8
0
  6
Continuous
 62
     7
100
AcDbLine
 10
71.5851674411003
 20
237.1874318273709
 30
0.0
 11
73.36516744110027
 21
237.1874318273709
 31
0.0
  0
LINE
  5
22D
330
1F
100
AcDbEntity
  8
0
  6
Continuous
 62
     7
100
AcDbLine
 10
73.36516744110027
 20
243.5374318273709
 30
0.0
 11
71.5851674411003
 21
243.5374318273709
 31
0.0
  0
LINE
  5
22E
330
1F
100
AcDbEntity
  8
0
  6
Continuous
 62
     7
100
AcDbLine
 10
72.43516744110026
 20
237.1874318273709
 30
0.0
 11
72.43516744110026
 21
243.5374318273709
 31
0.0
  0
LINE
  5
22F
330
1F
100
AcDbEntity
  8
0
  6
Continuous
 62
     7
100
AcDbLine
 10
71.5851674411003
 20
237.1874318273709
 30
0.0
 11
71.5851674411003
 21
243.5374318273709
 31
0.0
  0
LINE
  5
230
330
1F
100
AcDbEntity
  8
0
  6
Continuous
 62
     7
100
AcDbLine
 10
73.16760925223595
 20
225.3624318273707
 30
0.0
 11
80.36760925223594
 21
225.3624318273706
 31
0.0
  0
LINE
  5
231
330
1F
100
AcDbEntity
  8
0
  6
Continuous
 62
     7
100
AcDbLine
 10
84.11760925223543
 20
225.3624318273707
 30
0.0
 11
84.11760925223543
 21
229.0124318273707
 31
0.0
  0
LINE
  5
232
330
1F
100
AcDbEntity
  8
0
  6
Continuous
 62
     7
100
AcDbLine
 10
84.11760925223543
 20
229.0124318273707
 30
0.0
 11
84.11760925223543
 21
230.0124318273707
 31
0.0
  0
LINE
  5
233
330
1F
100
AcDbEntity
  8
0
  6
Continuous
 62
     7
100
AcDbLine
 10
77.91760925223544
 20
229.3624318273708
 30
0.0
 11
83.46760925223545
 21
229.3624318273708
 31
0.0
  0
LINE
  5
234
330
1F
100
AcDbEntity
  8
0
  6
Continuous
 62
     7
100
AcDbLine
 10
85.01760925223546
 20
230.7124318273706
 30
0.0
 11
85.01760925223546
 21
231.7124318273706
 31
0.0
  0
LINE
  5
235
330
1F
100
AcDbEntity
  8
0
  6
Continuous
 62
     7
100
AcDbLine
 10
84.11760925223543
 20
230.0124318273707
 30
0.0
 11
84.11760925223543
 21
230.7124318273706
 31
0.0
  0
LINE
  5
236
330
1F
100
AcDbEntity
  8
0
  6
Continuous
 62
     7
100
AcDbLine
 10
84.11760925223543
 20
229.0124318273707
 30
0.0
 11
85.01760925223546
 21
229.0124318273707
 31
0.0
  0
LINE
  5
237
330
1F
100
AcDbEntity
  8
0
  6
Continuous
 62
     7
100
AcDbLine
 10
85.01760925223546
 20
229.0124318273707
 30
0.0
 11
85.01760925223546
 21
230.0124318273707
 31
0.0
  0
LINE
  5
238
330
1F
100
AcDbEntity
  8
0
  6
Continuous
 62
     7
100
AcDbLine
 10
72.66760925223595
 20
225.3624318273704
 30
0.0
 11
72.66760925223595
 21
223.3624318273707
 31
0.0
  0
LINE
  5
239
330
1F
100
AcDbEntity
  8
0
  6
Continuous
 62
     2
100
AcDbLine
 10
80.36760925223594
 20
223.3624318273707
 30
0.0
 11
80.36760925223594
 21
225.3624318273706
 31
0.0
  0
LINE
  5
23A
330
1F
100
AcDbEntity
  8
0
  6
Continuous
 62
     2
100
AcDbLine
 10
73.16760925223595
 20
225.3624318273707
 30
0.0
 11
73.16760925223595
 21
223.3624318273707
 31
0.0
  0
LINE
  5
23B
330
1F
100
AcDbEntity
  8
0
  6
Continuous
 62
     7
100
AcDbLine
 10
80.36760925223594
 20
223.3624318273707
 30
0.0
 11
80.86760925223594
 21
223.3624318273707
 31
0.0
  0
LINE
  5
23C
330
1F
100
AcDbEntity
  8
0
  6
Continuous
 62
     7
100
AcDbLine
 10
80.86760925223594
 20
223.3624318273707
 30
0.0
 11
80.86760925223594
 21
225.3624318273704
 31
0.0
  0
LINE
  5
23D
330
1F
100
AcDbEntity
  8
0
  6
Continuous
 62
     7
100
AcDbLine
 10
72.66760925223595
 20
225.3624318273704
 30
0.0
 11
73.16760925223595
 21
225.3624318273707
 31
0.0
  0
LINE
  5
23E
330
1F
100
AcDbEntity
  8
0
  6
Continuous
 62
     7
100
AcDbLine
 10
73.16760925223595
 20
223.3624318273707
 30
0.0
 11
72.66760925223595
 21
223.3624318273707
 31
0.0
  0
LINE
  5
23F
330
1F
100
AcDbEntity
  8
0
  6
Continuous
 62
     7
100
AcDbLine
 10
73.16760925223595
 20
223.3624318273707
 30
0.0
 11
80.36760925223594
 21
223.3624318273707
 31
0.0
  0
LINE
  5
240
330
1F
100
AcDbEntity
  8
0
  6
Continuous
 62
     2
100
AcDbLine
 10
74.16760925223583
 20
255.362431827371
 30
0.0
 11
74.16760925223583
 21
257.3624318273706
 31
0.0
  0
LINE
  5
241
330
1F
100
AcDbEntity
  8
0
  6
Continuous
 62
     7
100
AcDbLine
 10
79.36760925223582
 20
257.3624318273706
 30
0.0
 11
74.16760925223583
 21
257.3624318273706
 31
0.0
  0
LINE
  5
242
330
1F
100
AcDbEntity
  8
0
  6
Continuous
 62
     7
100
AcDbLine
 10
79.86760925223582
 20
257.3624318273706
 30
0.0
 11
79.86760925223582
 21
255.362431827371
 31
0.0
  0
LINE
  5
243
330
1F
100
AcDbEntity
  8
0
  6
Continuous
 62
     7
100
AcDbLine
 10
84.11760925223543
 20
251.7124318273707
 30
0.0
 11
84.11760925223543
 21
255.3624318273712
 31
0.0
  0
LINE
  5
244
330
1F
100
AcDbEntity
  8
0
  6
Continuous
 62
     7
100
AcDbLine
 10
76.91760925223544
 20
252.3624318273708
 30
0.0
 11
83.11760925223543
 21
252.3624318273708
 31
0.0
  0
LINE
  5
245
330
1F
100
AcDbEntity
  8
0
  6
Continuous
 62
     7
100
AcDbLine
 10
85.01760925223546
 20
250.7124318273706
 30
0.0
 11
84.11760925223543
 21
250.7124318273706
 31
0.0
  0
LINE
  5
246
330
1F
100
AcDbEntity
  8
0
  6
Continuous
 62
     7
100
AcDbLine
 10
85.01760925223546
 20
251.7124318273707
 30
0.0
 11
85.01760925223546
 21
250.7124318273706
 31
0.0
  0
LINE
  5
247
330
1F
100
AcDbEntity
  8
0
  6
Continuous
 62
     7
100
AcDbLine
 10
83.46760925223545
 20
251.3624318273708
 30
0.0
 11
77.91760925223544
 21
251.3624318273708
 31
0.0
  0
LINE
  5
248
330
1F
100
AcDbEntity
  8
0
  6
Continuous
 62
     7
100
AcDbLine
 10
84.11760925223543
 20
250.7124318273706
 30
0.0
 11
84.11760925223543
 21
251.7124318273707
 31
0.0
  0
LINE
  5
249
330
1F
100
AcDbEntity
  8
0
  6
Continuous
 62
     2
100
AcDbLine
 10
79.36760925223582
 20
257.3624318273706
 30
0.0
 11
79.36760925223582
 21
255.362431827371
 31
0.0
  0
LINE
  5
24A
330
1F
100
AcDbEntity
  8
0
  6
Continuous
 62
     7
100
AcDbLine
 10
79.86760925223582
 20
257.3624318273706
 30
0.0
 11
79.36760925223582
 21
257.3624318273706
 31
0.0
  0
LINE
  5
24B
330
1F
100
AcDbEntity
  8
0
  6
Continuous
 62
     7
100
AcDbLine
 10
73.66760925223583
 20
257.3624318273706
 30
0.0
 11
74.16760925223583
 21
257.3624318273706
 31
0.0
  0
LINE
  5
24C
330
1F
100
AcDbEntity
  8
0
  6
Continuous
 62
     7
100
AcDbLine
 10
73.66760925223583
 20
255.362431827371
 30
0.0
 11
73.66760925223583
 21
257.3624318273706
 31
0.0
  0
LINE
  5
24D
330
1F
100
AcDbEntity
  8
0
  6
Continuous
 62
     7
100
AcDbLine
 10
80.16516744110028
 20
245.9658518273712
 30
0.0
 11
73.36516744110027
 21
245.9658518273712
 31
0.0
  0
LINE
  5
24E
330
1F
100
AcDbEntity
  8
0
  6
Continuous
 62
     7
100
AcDbLine
 10
73.36516744110027
 20
246.3124318273709
 30
0.0
 11
80.16516744110028
 21
246.3124318273709
 31
0.0
  0
LINE
  5
24F
330
1F
100
AcDbEntity
  8
0
  6
Continuous
 62
     7
100
AcDbLine
 10
70.06760925223541
 20
248.862431827371
 30
0.0
 11
77.91760925223544
 21
248.862431827371
 31
0.0
  0
LINE
  5
250
330
1F
100
AcDbEntity
  8
0
  6
Continuous
 62
     7
100
AcDbLine
 10
84.11760925223543
 20
249.0124318273707
 30
0.0
 11
85.01760925223546
 21
249.0124318273707
 31
0.0
  0
LINE
  5
251
330
1F
100
AcDbEntity
  8
0
  6
Continuous
 62
     2
100
AcDbLine
 10
80.16516744110028
 20
244.9624318273693
 30
0.0
 11
73.36516744110027
 21
244.9624318273693
 31
0.0
  0
LINE
  5
252
330
1F
100
AcDbEntity
  8
0
  6
Continuous
 62
     7
100
AcDbLine
 10
80.16516744110028
 20
244.5624318273692
 30
0.0
 11
73.36516744110027
 21
244.5624318273692
 31
0.0
  0
LINE
  5
253
330
1F
100
AcDbEntity
  8
0
  6
Continuous
 62
     7
100
AcDbLine
 10
83.11760925223543
 20
254.3624318273712
 30
0.0
 11
70.41760925223544
 21
254.3624318273712
 31
0.0
  0
LINE
  5
254
330
1F
100
AcDbEntity
  8
0
  6
Continuous
 62
     7
100
AcDbLine
 10
83.11760925223543
 20
252.3624318273708
 30
0.0
 11
83.11760925223543
 21
254.3624318273712
 31
0.0
  0
LINE
  5
255
330
1F
100
AcDbEntity
  8
0
  6
Continuous
 62
     7
100
AcDbLine
 10
84.11760925223543
 20
251.7124318273707
 30
0.0
 11
85.01760925223546
 21
251.7124318273707
 31
0.0
  0
LINE
  5
256
330
1F
100
AcDbEntity
  8
0
  6
Continuous
 62
     7
100
AcDbLine
 10
79.86760925223582
 20
255.362431827371
 30
0.0
 11
79.36760925223582
 21
255.362431827371
 31
0.0
  0
LINE
  5
257
330
1F
100
AcDbEntity
  8
0
  6
Continuous
 62
     7
100
AcDbLine
 10
84.11760925223543
 20
255.3624318273712
 30
0.0
 11
79.86760925223582
 21
255.362431827371
 31
0.0
  0
LINE
  5
258
330
1F
100
AcDbEntity
  8
0
  6
Continuous
 62
     7
100
AcDbLine
 10
73.66760925223583
 20
255.362431827371
 30
0.0
 11
69.41760925223544
 21
255.3624318273712
 31
0.0
  0
LINE
  5
259
330
1F
100
AcDbEntity
  8
0
  6
Continuous
 62
     7
100
AcDbLine
 10
74.16760925223583
 20
255.362431827371
 30
0.0
 11
73.66760925223583
 21
255.362431827371
 31
0.0
  0
LINE
  5
25A
330
1F
100
AcDbEntity
  8
0
  6
Continuous
 62
     7
100
AcDbLine
 10
79.36760925223582
 20
255.362431827371
 30
0.0
 11
74.16760925223583
 21
255.362431827371
 31
0.0
  0
LINE
  5
25B
330
1F
100
AcDbEntity
  8
0
  6
Continuous
 62
     7
100
AcDbLine
 10
77.91760925223544
 20
248.862431827371
 30
0.0
 11
77.91760925223544
 21
251.3624318273708
 31
0.0
  0
LINE
  5
25C
330
1F
100
AcDbEntity
  8
0
  6
Continuous
 62
     7
100
AcDbLine
 10
85.01760925223546
 20
249.0124318273707
 30
0.0
 11
85.01760925223546
 21
250.0124318273707
 31
0.0
  0
LINE
  5
25D
330
1F
100
AcDbEntity
  8
0
  6
Continuous
 62
     7
100
AcDbLine
 10
83.11760925223543
 20
226.3624318273708
 30
0.0
 11
70.41760925223544
 21
226.3624318273708
 31
0.0
  0
LINE
  5
25E
330
1F
100
AcDbEntity
  8
0
  6
Continuous
 62
     7
100
AcDbLine
 10
70.41760925223544
 20
230.862431827371
 30
0.0
 11
70.41760925223544
 21
226.3624318273708
 31
0.0
  0
LINE
  5
25F
330
1F
100
AcDbEntity
  8
0
  6
Continuous
 62
     7
100
AcDbLine
 10
83.11760925223543
 20
228.3624318273708
 30
0.0
 11
76.91760925223544
 21
228.3624318273708
 31
0.0
  0
LINE
  5
260
330
1F
100
AcDbEntity
  8
0
  6
Continuous
 62
     7
100
AcDbLine
 10
83.11760925223543
 20
226.3624318273708
 30
0.0
 11
83.11760925223543
 21
228.3624318273708
 31
0.0
  0
LINE
  5
261
330
1F
100
AcDbEntity
  8
0
  6
Continuous
 62
     7
100
AcDbLine
 10
76.91760925223544
 20
230.862431827371
 30
0.0
 11
76.91760925223544
 21
228.3624318273708
 31
0.0
  0
LINE
  5
262
330
1F
100
AcDbEntity
  8
0
  6
Continuous
 62
     7
100
AcDbLine
 10
69.41760925223544
 20
225.3624318273707
 30
0.0
 11
72.66760925223595
 21
225.3624318273704
 31
0.0
  0
LINE
  5
263
330
1F
100
AcDbEntity
  8
0
  6
Continuous
 62
     7
100
AcDbLine
 10
80.86760925223594
 20
225.3624318273704
 30
0.0
 11
84.11760925223543
 21
225.3624318273707
 31
0.0
  0
LINE
  5
264
330
1F
100
AcDbEntity
  8
0
  6
Continuous
 62
     7
100
AcDbLine
 10
80.36760925223594
 20
225.3624318273706
 30
0.0
 11
80.86760925223594
 21
225.3624318273704
 31
0.0
  0
LINE
  5
265
330
1F
100
AcDbEntity
  8
0
  6
Continuous
 62
     2
100
AcDbLine
 10
73.36516744110027
 20
235.762431827373
 30
0.0
 11
80.16516744110028
 21
235.762431827373
 31
0.0
  0
LINE
  5
266
330
1F
100
AcDbEntity
  8
0
  6
Continuous
 62
     7
100
AcDbLine
 10
80.16516744110028
 20
234.4124318273709
 30
0.0
 11
73.36516744110027
 21
234.4124318273709
 31
0.0
  0
LINE
  5
267
330
1F
100
AcDbEntity
  8
0
  6
Continuous
 62
     7
100
AcDbLine
 10
77.91760925223544
 20
231.862431827371
 30
0.0
 11
70.06760925223541
 21
231.862431827371
 31
0.0
  0
LINE
  5
268
330
1F
100
AcDbEntity
  8
0
  6
Continuous
 62
     7
100
AcDbLine
 10
70.41760925223544
 20
230.862431827371
 30
0.0
 11
76.91760925223544
 21
230.862431827371
 31
0.0
  0
LINE
  5
269
330
1F
100
AcDbEntity
  8
0
  6
Continuous
 62
     7
100
AcDbLine
 10
84.11760925223543
 20
230.7124318273706
 30
0.0
 11
85.01760925223546
 21
230.7124318273706
 31
0.0
  0
LINE
  5
26A
330
1F
100
AcDbEntity
  8
0
  6
Continuous
 62
     7
100
AcDbLine
 10
80.16516744110028
 20
234.7590118273712
 30
0.0
 11
73.36516744110027
 21
234.7590118273712
 31
0.0
  0
LINE
  5
26B
330
1F
100
AcDbEntity
  8
0
  6
Continuous
 62
     7
100
AcDbLine
 10
73.36516744110027
 20
236.162431827373
 30
0.0
 11
80.16516744110028
 21
236.162431827373
 31
0.0
  0
LINE
  5
26C
330
1F
100
AcDbEntity
  8
0
  6
Continuous
 62
     7
100
AcDbLine
 10
129.417609085209
 20
160.1624355689422
 30
0.0
 11
125.4176090852089
 21
160.1624355689422
 31
0.0
  0
LINE
  5
26D
330
1F
100
AcDbEntity
  8
0
  6
Continuous
 62
     7
100
AcDbLine
 10
122.4176090852088
 20
167.1624355689422
 30
0.0
 11
122.417609085209
 21
166.6624355689422
 31
0.0
  0
LINE
  5
26E
330
1F
100
AcDbEntity
  8
0
  6
Continuous
 62
     7
100
AcDbLine
 10
122.417609085209
 20
166.6624355689422
 30
0.0
 11
120.417609085209
 21
166.6624355689422
 31
0.0
  0
LINE
  5
26F
330
1F
100
AcDbEntity
  8
0
  6
Continuous
 62
     2
100
AcDbLine
 10
122.4176090852088
 20
167.1624355689422
 30
0.0
 11
120.4176090852089
 21
167.1624355689422
 31
0.0
  0
LINE
  5
270
330
1F
100
AcDbEntity
  8
0
  6
Continuous
 62
     7
100
AcDbLine
 10
122.417609085209
 20
166.6624355689422
 30
0.0
 11
122.4176090852089
 21
152.6624355689422
 31
0.0
  0
LINE
  5
271
330
1F
100
AcDbEntity
  8
0
  6
Continuous
 62
     7
100
AcDbLine
 10
124.4176090852089
 20
152.6624355689422
 30
0.0
 11
122.4176090852089
 21
152.6624355689422
 31
0.0
  0
LINE
  5
272
330
1F
100
AcDbEntity
  8
0
  6
Continuous
 62
     7
100
AcDbLine
 10
129.4676090852088
 20
170.1624355689422
 30
0.0
 11
145.3676090852088
 21
170.1624355689423
 31
0.0
  0
LINE
  5
273
330
1F
100
AcDbEntity
  8
0
  6
Continuous
 62
     7
100
AcDbLine
 10
129.4176090852089
 20
170.1624355689422
 30
0.0
 11
125.6676090852088
 21
170.1624355689422
 31
0.0
  0
LINE
  5
274
330
1F
100
AcDbEntity
  8
0
  6
Continuous
 62
     7
100
AcDbLine
 10
149.1676090852088
 20
170.1624355689423
 30
0.0
 11
145.4176090852089
 21
170.1624355689423
 31
0.0
  0
LINE
  5
275
330
1F
100
AcDbEntity
  8
0
  6
Continuous
 62
     7
100
AcDbLine
 10
149.4176090852089
 20
170.1624355689423
 30
0.0
 11
149.1676090852088
 21
170.1624355689423
 31
0.0
  0
LINE
  5
276
330
1F
100
AcDbEntity
  8
0
  6
Continuous
 62
     7
100
AcDbLine
 10
124.4176090852089
 20
170.1624355689422
 30
0.0
 11
122.4176090852088
 21
170.1624355689422
 31
0.0
  0
LINE
  5
277
330
1F
100
AcDbEntity
  8
0
  6
Continuous
 62
     7
100
AcDbLine
 10
125.6676090852088
 20
170.1624355689422
 30
0.0
 11
125.4176090852088
 21
170.1624355689422
 31
0.0
  0
LINE
  5
278
330
1F
100
AcDbEntity
  8
0
  6
Continuous
 62
     7
100
AcDbLine
 10
145.3676090852088
 20
170.1624355689423
 30
0.0
 11
145.4176090852089
 21
170.1624355689423
 31
0.0
  0
LINE
  5
279
330
1F
100
AcDbEntity
  8
0
  6
Continuous
 62
     7
100
AcDbLine
 10
129.4176090852089
 20
170.1624355689422
 30
0.0
 11
129.4676090852088
 21
170.1624355689422
 31
0.0
  0
LINE
  5
27A
330
1F
100
AcDbEntity
  8
0
  6
Continuous
 62
     7
100
AcDbLine
 10
125.4176090852088
 20
170.1624355689422
 30
0.0
 11
124.4176090852089
 21
170.1624355689422
 31
0.0
  0
LINE
  5
27B
330
1F
100
AcDbEntity
  8
0
  6
Continuous
 62
     7
100
AcDbLine
 10
145.4176090852089
 20
170.1624355689423
 30
0.0
 11
145.417609085209
 21
160.1624355689423
 31
0.0
  0
LINE
  5
27C
330
1F
100
AcDbEntity
  8
0
  6
Continuous
 62
     7
100
AcDbLine
 10
149.4176090852089
 20
170.1624355689423
 30
0.0
 11
149.4176090852089
 21
160.1624355689423
 31
0.0
  0
LINE
  5
27D
330
1F
100
AcDbEntity
  8
0
  6
Continuous
 62
     7
100
AcDbLine
 10
150.4176090852092
 20
170.1624355689423
 30
0.0
 11
149.4176090852089
 21
170.1624355689423
 31
0.0
  0
LINE
  5
27E
330
1F
100
AcDbEntity
  8
0
  6
Continuous
 62
     7
100
AcDbLine
 10
152.4176090852093
 20
170.1624355689423
 30
0.0
 11
150.4176090852092
 21
170.1624355689423
 31
0.0
  0
LINE
  5
27F
330
1F
100
AcDbEntity
  8
0
  6
Continuous
 62
     7
100
AcDbLine
 10
149.4176090852089
 20
160.1624355689423
 30
0.0
 11
145.417609085209
 21
160.1624355689423
 31
0.0
  0
LINE
  5
280
330
1F
100
AcDbEntity
  8
0
  6
Continuous
 62
     7
100
AcDbLine
 10
122.417609085209
 20
135.9624355689421
 30
0.0
 11
122.4176090852089
 21
152.6624355689422
 31
0.0
  0
LINE
  5
281
330
1F
100
AcDbEntity
  8
0
  6
Continuous
 62
     7
100
AcDbLine
 10
122.4176090852088
 20
170.1624355689422
 30
0.0
 11
122.4176090852088
 21
167.1624355689422
 31
0.0
  0
LINE
  5
282
330
1F
100
AcDbEntity
  8
0
  6
Continuous
 62
     7
100
AcDbLine
 10
120.4176090852089
 20
170.1624355689422
 30
0.0
 11
122.4176090852088
 21
170.1624355689422
 31
0.0
  0
LINE
  5
283
330
1F
100
AcDbEntity
  8
0
  6
Continuous
 62
     7
100
AcDbLine
 10
129.4676090852088
 20
188.6624355689422
 30
0.0
 11
129.4676090852088
 21
170.1624355689422
 31
0.0
  0
LINE
  5
284
330
1F
100
AcDbEntity
  8
0
  6
Continuous
 62
     7
100
AcDbLine
 10
133.4176090852088
 20
182.6624355689422
 30
0.0
 11
133.4176090852088
 21
189.6624355689422
 31
0.0
  0
LINE
  5
285
330
1F
100
AcDbEntity
  8
0
  6
Continuous
 62
     7
100
AcDbLine
 10
133.4176090852088
 20
189.6624355689422
 30
0.0
 11
131.4176090852088
 21
189.6624355689422
 31
0.0
  0
LINE
  5
286
330
1F
100
AcDbEntity
  8
0
  6
Continuous
 62
     7
100
AcDbLine
 10
125.6676090852088
 20
177.6624355689422
 30
0.0
 11
125.6676090852088
 21
170.1624355689422
 31
0.0
  0
LINE
  5
287
330
1F
100
AcDbEntity
  8
0
  6
Continuous
 62
     7
100
AcDbLine
 10
125.4176090852089
 20
160.1624355689422
 30
0.0
 11
125.4176090852088
 21
170.1624355689422
 31
0.0
  0
LINE
  5
288
330
1F
100
AcDbEntity
  8
0
  6
Continuous
 62
     7
100
AcDbLine
 10
120.417609085209
 20
166.6624355689422
 30
0.0
 11
120.4176090852089
 21
167.1624355689422
 31
0.0
  0
LINE
  5
289
330
1F
100
AcDbEntity
  8
0
  6
Continuous
 62
     7
100
AcDbLine
 10
120.4176090852089
 20
167.1624355689422
 30
0.0
 11
120.4176090852089
 21
170.1624355689422
 31
0.0
  0
LINE
  5
28A
330
1F
100
AcDbEntity
  8
0
  6
Continuous
 62
     7
100
AcDbLine
 10
129.4176090852089
 20
170.1624355689422
 30
0.0
 11
129.417609085209
 21
160.1624355689422
 31
0.0
  0
LINE
  5
28B
330
1F
100
AcDbEntity
  8
0
  6
Continuous
 62
     7
100
AcDbLine
 10
124.4176090852089
 20
152.6624355689422
 30
0.0
 11
124.4176090852089
 21
170.1624355689422
 31
0.0
  0
LINE
  5
28C
330
1F
100
AcDbEntity
  8
0
  6
Continuous
 62
     7
100
AcDbLine
 10
127.7676090852088
 20
170.1624355689422
 30
0.0
 11
127.7676090852088
 21
177.6624355689422
 31
0.0
  0
LINE
  5
28D
330
1F
100
AcDbEntity
  8
0
  6
Continuous
 62
     7
100
AcDbLine
 10
125.6676090852088
 20
177.6624355689422
 30
0.0
 11
127.7676090852088
 21
177.6624355689422
 31
0.0
  0
LINE
  5
28E
330
1F
100
AcDbEntity
  8
0
  6
Continuous
 62
     7
100
AcDbLine
 10
131.4176090852088
 20
182.6624355689422
 30
0.0
 11
133.4176090852088
 21
182.6624355689422
 31
0.0
  0
LINE
  5
28F
330
1F
100
AcDbEntity
  8
0
  6
Continuous
 62
     7
100
AcDbLine
 10
131.4176090852088
 20
189.6624355689422
 30
0.0
 11
131.4176090852088
 21
182.6624355689422
 31
0.0
  0
LINE
  5
290
330
1F
100
AcDbEntity
  8
0
  6
Continuous
 62
     7
100
AcDbLine
 10
150.4176090852093
 20
152.6624355689423
 30
0.0
 11
150.4176090852092
 21
170.1624355689423
 31
0.0
  0
LINE
  5
291
330
1F
100
AcDbEntity
  8
0
  6
Continuous
 62
     7
100
AcDbLine
 10
152.4176090852093
 20
152.6624355689423
 30
0.0
 11
150.4176090852093
 21
152.6624355689423
 31
0.0
  0
LINE
  5
292
330
1F
100
AcDbEntity
  8
0
  6
Continuous
 62
     7
100
AcDbLine
 10
152.4176090852093
 20
166.6624355689423
 30
0.0
 11
152.4176090852093
 21
152.6624355689423
 31
0.0
  0
LINE
  5
293
330
1F
100
AcDbEntity
  8
0
  6
Continuous
 62
     7
100
AcDbLine
 10
152.4176090852093
 20
170.1624355689423
 30
0.0
 11
152.4176090852093
 21
167.1624355689423
 31
0.0
  0
LINE
  5
294
330
1F
100
AcDbEntity
  8
0
  6
Continuous
 62
     7
100
AcDbLine
 10
152.4176090852093
 20
167.1624355689423
 30
0.0
 11
152.4176090852093
 21
166.6624355689423
 31
0.0
  0
LINE
  5
295
330
1F
100
AcDbEntity
  8
0
  6
Continuous
 62
     7
100
AcDbLine
 10
122.417609085209
 20
135.9624355689421
 30
0.0
 11
152.4176090852095
 21
135.9624355689425
 31
0.0
  0
LINE
  5
296
330
1F
100
AcDbEntity
  8
0
  6
Continuous
 62
     2
100
AcDbLine
 10
152.4176090852093
 20
167.1624355689423
 30
0.0
 11
154.4176090852089
 21
167.1624355689423
 31
0.0
  0
LINE
  5
297
330
1F
100
AcDbEntity
  8
0
  6
Continuous
 62
     7
100
AcDbLine
 10
152.4176090852095
 20
135.9624355689425
 30
0.0
 11
152.4176090852093
 21
152.6624355689423
 31
0.0
  0
LINE
  5
298
330
1F
100
AcDbEntity
  8
0
  6
Continuous
 62
     7
100
AcDbLine
 10
142.3676090852088
 20
191.6624355689422
 30
0.0
 11
132.4676090852088
 21
191.6624355689422
 31
0.0
  0
LINE
  5
299
330
1F
100
AcDbEntity
  8
0
  6
Continuous
 62
     7
100
AcDbLine
 10
145.3676090852088
 20
170.1624355689423
 30
0.0
 11
145.3676090852088
 21
188.6624355689422
 31
0.0
  0
LINE
  5
29A
330
1F
100
AcDbEntity
  8
0
  6
Continuous
 62
     7
100
AcDbLine
 10
141.4176090852088
 20
182.6624355689422
 30
0.0
 11
143.4176090852088
 21
182.6624355689422
 31
0.0
  0
LINE
  5
29B
330
1F
100
AcDbEntity
  8
0
  6
Continuous
 62
     7
100
AcDbLine
 10
147.0676090852088
 20
170.1624355689423
 30
0.0
 11
147.0676090852088
 21
177.6624355689422
 31
0.0
  0
LINE
  5
29C
330
1F
100
AcDbEntity
  8
0
  6
Continuous
 62
     7
100
AcDbLine
 10
149.1676090852088
 20
177.6624355689422
 30
0.0
 11
147.0676090852088
 21
177.6624355689422
 31
0.0
  0
LINE
  5
29D
330
1F
100
AcDbEntity
  8
0
  6
Continuous
 62
     7
100
AcDbLine
 10
149.1676090852088
 20
170.1624355689423
 30
0.0
 11
149.1676090852088
 21
177.6624355689422
 31
0.0
  0
LINE
  5
29E
330
1F
100
AcDbEntity
  8
0
  6
Continuous
 62
     7
100
AcDbLine
 10
152.4176090852093
 20
170.1624355689423
 30
0.0
 11
154.4176090852089
 21
170.1624355689423
 31
0.0
  0
LINE
  5
29F
330
1F
100
AcDbEntity
  8
0
  6
Continuous
 62
     7
100
AcDbLine
 10
143.4176090852088
 20
189.6624355689422
 30
0.0
 11
141.4176090852088
 21
189.6624355689422
 31
0.0
  0
LINE
  5
2A0
330
1F
100
AcDbEntity
  8
0
  6
Continuous
 62
     7
100
AcDbLine
 10
141.4176090852088
 20
189.6624355689422
 30
0.0
 11
141.4176090852088
 21
182.6624355689422
 31
0.0
  0
LINE
  5
2A1
330
1F
100
AcDbEntity
  8
0
  6
Continuous
 62
     7
100
AcDbLine
 10
143.4176090852088
 20
182.6624355689422
 30
0.0
 11
143.4176090852088
 21
189.6624355689422
 31
0.0
  0
LINE
  5
2A2
330
1F
100
AcDbEntity
  8
0
  6
Continuous
 62
     7
100
AcDbLine
 10
152.4176090852093
 20
166.6624355689423
 30
0.0
 11
154.4176090852089
 21
166.6624355689423
 31
0.0
  0
LINE
  5
2A3
330
1F
100
AcDbEntity
  8
0
  6
Continuous
 62
     7
100
AcDbLine
 10
154.4176090852089
 20
167.1624355689423
 30
0.0
 11
154.4176090852089
 21
170.1624355689423
 31
0.0
  0
LINE
  5
2A4
330
1F
100
AcDbEntity
  8
0
  6
Continuous
 62
     7
100
AcDbLine
 10
154.4176090852089
 20
167.1624355689423
 30
0.0
 11
154.4176090852089
 21
166.6624355689423
 31
0.0
  0
ARC
  5
2A5
330
1F
100
AcDbEntity
  8
0
  6
Continuous
 62
     7
100
AcDbCircle
 10
77.18427745487328
 20
149.7011854565386
 30
0.0
 40
0.104167486539754
100
AcDbArc
 50
0.00007455269037
 51
139.0324620326509
  0
ARC
  5
2A6
330
1F
100
AcDbEntity
  8
0
  6
Continuous
 62
     7
100
AcDbCircle
 10
77.6009465607931
 20
149.4609076612861
 30
0.0
 40
0.1041668139594306
100
AcDbArc
 50
60.02941233814585
 51
179.9999158350567
  0
ARC
  5
2A7
330
1F
100
AcDbEntity
  8
0
  6
Continuous
 62
     7
100
AcDbCircle
 10
76.35094104959843
 20
149.7011854565386
 30
0.0
 40
0.1041667608679409
100
AcDbArc
 50
40.96753796684099
 51
179.9999254467903
  0
ARC
  5
2A8
330
1F
100
AcDbEntity
  8
0
  6
Continuous
 62
     7
100
AcDbCircle
 10
75.93427167880346
 20
148.1639633235823
 30
0.0
 40
0.1041666080853929
100
AcDbArc
 50
179.9999999999375
 51
240.0294965032693
  0
ARC
  5
2A9
330
1F
100
AcDbEntity
  8
0
  6
Continuous
 62
     7
100
AcDbCircle
 10
77.60094682566826
 20
148.1639633235823
 30
0.0
 40
0.1041670788344504
100
AcDbArc
 50
179.9999999999375
 51
299.9705034967026
  0
ARC
  5
2AA
330
1F
100
AcDbEntity
  8
0
  6
Continuous
 62
     7
100
AcDbCircle
 10
74.16760925223583
 20
167.1624355689423
 30
0.0
 40
0.5
100
AcDbArc
 50
180.0
 51
270.0
  0
ARC
  5
2AB
330
1F
100
AcDbEntity
  8
0
  6
Continuous
 62
     7
100
AcDbCircle
 10
79.36760925223582
 20
167.1624355689423
 30
0.0
 40
0.5
100
AcDbArc
 50
270.0
 51
0.0
  0
ARC
  5
2AC
330
1F
100
AcDbEntity
  8
0
  6
Continuous
 62
     7
100
AcDbCircle
 10
182.02687447582
 20
272.0376546994781
 30
0.0
 40
0.0286254646476891
100
AcDbArc
 50
331.1007606859353
 51
359.3401449832102
  0
ARC
  5
2AD
330
1F
100
AcDbEntity
  8
0
  6
Continuous
 62
     7
100
AcDbCircle
 10
132.4676090852088
 20
188.6624355689422
 30
0.0
 40
3.0
100
AcDbArc
 50
90.0
 51
180.0
  0
ARC
  5
2AE
330
1F
100
AcDbEntity
  8
0
  6
Continuous
 62
     7
100
AcDbCircle
 10
142.3676090852088
 20
188.6624355689422
 30
0.0
 40
3.0
100
AcDbArc
 50
0.0
 51
90.0
  0
SPLINE
  5
2AF
330
1F
100
AcDbEntity
  8
0
  6
Continuous
 62
     7
100
AcDbSpline
210
0.0
220
0.0
230
1.0
 70
     8
 71
     3
 72
    15
 73
    11
 74
     9
 42
0.000000001
 43
0.0000000001
 44
0.00000001
 40
0.0
 40
0.0
 40
0.0
 40
0.0
 40
0.0406439247505255
 40
0.0812878638171683
 40
0.1219317646943947
 40
0.1625755979086768
 40
0.2032193702294957
 40
0.2438631241031872
 40
0.2845069120691608
 40
0.3251507658540936
 40
0.3251507658540936
 40
0.3251507658540936
 40
0.3251507658540936
 10
76.7155719259314
 20
147.5931700380912
 30
0.0
 10
76.72816470102521
 20
147.5877159308125
 30
0.0
 10
76.75335025957794
 20
147.5768077264385
 30
0.0
 10
76.79542134474077
 20
147.580352772952
 30
0.0
 10
76.8326919637565
 20
147.5986072031747
 30
0.0
 10
76.86019682110553
 20
147.6300158070202
 30
0.0
 10
76.87360464638948
 20
147.6695536907275
 30
0.0
 10
76.87073575063316
 20
147.7109551856394
 30
0.0
 10
76.8527311072377
 20
147.7491437665274
 30
0.0
 10
76.83067474391252
 20
147.7654782188224
 30
0.0
 10
76.81964654906615
 20
147.7736454468508
 30
0.0
 11
76.7155719259314
 21
147.5931700380912
 31
0.0
 11
76.75406571712101
 21
147.5801256098529
 31
0.0
 11
76.79462129000372
 21
147.5828043343838
 31
0.0
 11
76.83106436956035
 21
147.6007995785258
 31
0.0
 11
76.85784733922479
 21
147.6313707065716
 31
0.0
 11
76.87089187118866
 21
147.6698642978563
 31
0.0
 11
76.86821314093031
 21
147.7104196836138
 31
0.0
 11
76.85021781539186
 21
147.7468625983311
 31
0.0
 11
76.81964654906615
 21
147.7736454468508
 31
0.0
  0
SPLINE
  5
2B0
330
1F
100
AcDbEntity
  8
0
  6
Continuous
 62
     7
100
AcDbSpline
210
0.0
220
0.0
230
1.0
 70
     8
 71
     3
 72
    15
 73
    11
 74
     9
 42
0.000000001
 43
0.0000000001
 44
0.00000001
 40
0.0
 40
0.0
 40
0.0
 40
0.0
 40
0.0406439266176354
 40
0.0812878056429052
 40
0.1219316154608382
 40
0.1625753758423349
 40
0.2032191362238036
 40
0.2438629460417603
 40
0.2845068250670341
 40
0.3251507516846779
 40
0.3251507516846779
 40
0.3251507516846779
 40
0.3251507516846779
 10
78.22594918193165
 20
148.7082689022758
 30
0.0
 10
78.23958271173743
 20
148.70983485033
 30
0.0
 10
78.26684975274182
 20
148.7129667570538
 30
0.0
 10
78.3015242320345
 20
148.7370545268126
 30
0.0
 10
78.3246919554478
 20
148.7714866962177
 30
0.0
 10
78.33282848527726
 20
148.8124355689424
 30
0.0
 10
78.32469195544779
 20
148.8533844416672
 30
0.0
 10
78.30152423203448
 20
148.8878166110723
 30
0.0
 10
78.26684975274188
 20
148.9119043808311
 30
0.0
 10
78.23958271173741
 20
148.9150362875548
 30
0.0
 10
78.22594918193165
 20
148.9166022356091
 30
0.0
 11
78.22594918193165
 21
148.7082689022758
 31
0.0
 11
78.2658120985748
 21
148.7161984102487
 31
0.0
 11
78.29960647147188
 21
148.7387786125689
 31
0.0
 11
78.32218677592728
 21
148.7725728326072
 31
0.0
 11
78.33011631976707
 21
148.8124355689424
 31
0.0
 11
78.32218677592728
 21
148.8522983052776
 31
0.0
 11
78.29960647147188
 21
148.886092525316
 31
0.0
 11
78.26581209857481
 21
148.9086727276362
 31
0.0
 11
78.22594918193165
 21
148.9166022356091
 31
0.0
  0
SPLINE
  5
2B1
330
1F
100
AcDbEntity
  8
0
  6
Continuous
 62
     7
100
AcDbSpline
210
0.0
220
0.0
230
1.0
 70
     8
 71
     3
 72
    15
 73
    11
 74
     9
 42
0.000000001
 43
0.0000000001
 44
0.00000001
 40
0.0
 40
0.0
 40
0.0
 40
0.0
 40
0.0406437567721711
 40
0.0812875654420451
 40
0.1219314456153539
 40
0.162575375842407
 40
0.2032193060694741
 40
0.243863186242771
 40
0.2845069949126687
 40
0.3251507516848119
 40
0.3251507516848119
 40
0.3251507516848119
 40
0.3251507516848119
 10
77.08011066574211
 20
147.9236855458046
 30
0.0
 10
77.08167662417686
 20
147.9100520719112
 30
0.0
 10
77.08480855549497
 20
147.8827851093588
 30
0.0
 10
77.1088964755859
 20
147.8481107842479
 30
0.0
 10
77.14332879560908
 20
147.8249432019159
 30
0.0
 10
77.18427780357754
 20
147.8168067310789
 30
0.0
 10
77.22522681154601
 20
147.8249432019159
 30
0.0
 10
77.25965913156918
 20
147.8481107842479
 30
0.0
 10
77.28374705166007
 20
147.8827851093588
 30
0.0
 10
77.28687898297824
 20
147.9100520719112
 30
0.0
 10
77.28844494141295
 20
147.9236855458046
 30
0.0
 11
77.08011066574211
 21
147.9236855458046
 31
0.0
 11
77.08804020958189
 21
147.8838228094693
 31
0.0
 11
77.11062051403731
 21
147.850028589431
 31
0.0
 11
77.1444148869344
 21
147.8274483871108
 31
0.0
 11
77.18427780357753
 21
147.8195188791379
 31
0.0
 11
77.22414072022067
 21
147.8274483871108
 31
0.0
 11
77.25793509311775
 21
147.850028589431
 31
0.0
 11
77.28051539757317
 21
147.8838228094694
 31
0.0
 11
77.28844494141295
 21
147.9236855458046
 31
0.0
  0
SPLINE
  5
2B2
330
1F
100
AcDbEntity
  8
0
  6
Continuous
 62
     7
100
AcDbSpline
210
0.0
220
0.0
230
1.0
 70
     8
 71
     3
 72
    15
 73
    11
 74
     9
 42
0.000000001
 43
0.0000000001
 44
0.00000001
 40
0.0
 40
0.0
 40
0.0
 40
0.0
 40
0.0406438537849649
 40
0.0812876417509448
 40
0.1219313956246638
 40
0.1625751679454694
 40
0.2032190011598037
 40
0.243862902036992
 40
0.2845068370062611
 40
0.325150751684678
 40
0.325150751684678
 40
0.325150751684678
 40
0.325150751684678
 10
78.27798647876195
 20
148.434142311425
 30
0.0
 10
78.28901467360775
 20
148.442309539454
 30
0.0
 10
78.31107103693178
 20
148.4586439917499
 30
0.0
 10
78.32907568033603
 20
148.4968325726303
 30
0.0
 10
78.33194457605904
 20
148.5382340675712
 30
0.0
 10
78.31853675089947
 20
148.5777719511701
 30
0.0
 10
78.29103189308591
 20
148.6091805554206
 30
0.0
 10
78.25376127705647
 20
148.6274349835182
 30
0.0
 10
78.2116901905537
 20
148.6309800360029
 30
0.0
 10
78.1865046501801
 20
148.6200717945103
 30
0.0
 10
78.17391188510142
 20
148.6146176690731
 30
0.0
 11
78.27798647876195
 21
148.434142311425
 31
0.0
 11
78.3085577450877
 21
148.4609251599447
 31
0.0
 11
78.32655307062616
 21
148.497368074662
 31
0.0
 11
78.3292318008845
 21
148.5379234604194
 31
0.0
 11
78.31618726892059
 21
148.5764170517042
 31
0.0
 11
78.28940429925615
 21
148.60698817975
 31
0.0
 11
78.25296121969954
 21
148.624983423892
 31
0.0
 11
78.21240565050113
 21
148.627662142034
 31
0.0
 11
78.17391188510142
 21
148.6146176690731
 31
0.0
  0
SPLINE
  5
2B3
330
1F
100
AcDbEntity
  8
0
  6
Continuous
 62
     7
100
AcDbSpline
210
0.0
220
0.0
230
1.0
 70
     8
 71
     3
 72
    15
 73
    11
 74
     9
 42
0.000000001
 43
0.0000000001
 44
0.00000001
 40
0.0
 40
0.0
 40
0.0
 40
0.0
 40
0.0406437567721209
 40
0.0812875654420185
 40
0.1219314456153037
 40
0.1625753758423568
 40
0.2032193060694238
 40
0.2438631862427208
 40
0.2845069949126421
 40
0.3251507516847295
 40
0.3251507516847295
 40
0.3251507516847295
 40
0.3251507516847295
 10
76.24677356305877
 20
148.4042411013601
 30
0.0
 10
76.2483395214935
 20
148.3906076274667
 30
0.0
 10
76.25147145281169
 20
148.3633406649143
 30
0.0
 10
76.27555937290255
 20
148.3286663398034
 30
0.0
 10
76.30999169292576
 20
148.3054987574714
 30
0.0
 10
76.3509407008942
 20
148.2973622866344
 30
0.0
 10
76.39188970886264
 20
148.3054987574714
 30
0.0
 10
76.42632202888583
 20
148.3286663398034
 30
0.0
 10
76.45040994897673
 20
148.3633406649144
 30
0.0
 10
76.45354188029486
 20
148.3906076274668
 30
0.0
 10
76.4551078387296
 20
148.4042411013601
 30
0.0
 11
76.24677356305877
 21
148.4042411013601
 31
0.0
 11
76.25470310689857
 21
148.3643783650249
 31
0.0
 11
76.27728341135399
 21
148.3305841449865
 31
0.0
 11
76.31107778425105
 21
148.3080039426663
 31
0.0
 11
76.35094070089418
 21
148.3000744346934
 31
0.0
 11
76.39080361753733
 21
148.3080039426663
 31
0.0
 11
76.4245979904344
 21
148.3305841449865
 31
0.0
 11
76.44717829488982
 21
148.3643783650249
 31
0.0
 11
76.4551078387296
 21
148.4042411013601
 31
0.0
  0
SPLINE
  5
2B4
330
1F
100
AcDbEntity
  8
0
  6
Continuous
 62
     7
100
AcDbSpline
210
0.0
220
0.0
230
1.0
 70
     8
 71
     3
 72
    15
 73
    11
 74
     9
 42
0.000000001
 43
0.0000000001
 44
0.00000001
 40
0.0
 40
0.0
 40
0.0
 40
0.0
 40
0.0406437567721209
 40
0.0812875654420185
 40
0.1219314456153155
 40
0.1625753758423825
 40
0.2032193060694217
 40
0.2438631862427187
 40
0.28450699491264
 40
0.3251507516847274
 40
0.3251507516847274
 40
0.3251507516847274
 40
0.3251507516847274
 10
75.41343646037542
 20
148.4042411013601
 30
0.0
 10
75.41500241881018
 20
148.3906076274667
 30
0.0
 10
75.41813435012831
 20
148.3633406649143
 30
0.0
 10
75.44222227021923
 20
148.3286663398034
 30
0.0
 10
75.47665459024239
 20
148.3054987574714
 30
0.0
 10
75.51760359821087
 20
148.2973622866344
 30
0.0
 10
75.55855260617932
 20
148.3054987574714
 30
0.0
 10
75.59298492620249
 20
148.3286663398034
 30
0.0
 10
75.61707284629338
 20
148.3633406649144
 30
0.0
 10
75.62020477761152
 20
148.3906076274667
 30
0.0
 10
75.62177073604626
 20
148.4042411013601
 30
0.0
 11
75.41343646037542
 21
148.4042411013601
 31
0.0
 11
75.42136600421523
 21
148.3643783650249
 31
0.0
 11
75.44394630867065
 21
148.3305841449865
 31
0.0
 11
75.47774068156772
 21
148.3080039426663
 31
0.0
 11
75.51760359821087
 21
148.3000744346934
 31
0.0
 11
75.55746651485399
 21
148.3080039426663
 31
0.0
 11
75.59126088775106
 21
148.3305841449865
 31
0.0
 11
75.61384119220648
 21
148.3643783650249
 31
0.0
 11
75.62177073604626
 21
148.4042411013601
 31
0.0
  0
SPLINE
  5
2B5
330
1F
100
AcDbEntity
  8
0
  6
Continuous
 62
     7
100
AcDbSpline
210
0.0
220
0.0
230
1.0
 70
     8
 71
     3
 72
    15
 73
    11
 74
     9
 42
0.000000001
 43
0.0000000001
 44
0.00000001
 40
0.0
 40
0.0
 40
0.0
 40
0.0
 40
0.040643756772146
 40
0.0812875654420357
 40
0.1219314456153327
 40
0.1625753758423663
 40
0.2032193060694279
 40
0.2438631862427248
 40
0.2845069949126146
 40
0.3251507516847661
 40
0.3251507516847661
 40
0.3251507516847661
 40
0.3251507516847661
 10
75.62177073604626
 20
149.2206300365247
 30
0.0
 10
75.6202047776115
 20
149.2342635104181
 30
0.0
 10
75.61707284629338
 20
149.2615304729705
 30
0.0
 10
75.59298492620249
 20
149.2962047980814
 30
0.0
 10
75.55855260617932
 20
149.3193723804134
 30
0.0
 10
75.51760359821087
 20
149.3275088512505
 30
0.0
 10
75.47665459024239
 20
149.3193723804134
 30
0.0
 10
75.44222227021922
 20
149.2962047980814
 30
0.0
 10
75.41813435012835
 20
149.2615304729705
 30
0.0
 10
75.41500241881019
 20
149.2342635104181
 30
0.0
 10
75.41343646037542
 20
149.2206300365247
 30
0.0
 11
75.62177073604626
 21
149.2206300365247
 31
0.0
 11
75.61384119220646
 21
149.2604927728599
 31
0.0
 11
75.59126088775106
 21
149.2942869928983
 31
0.0
 11
75.55746651485399
 21
149.3168671952185
 31
0.0
 11
75.51760359821087
 21
149.3247967031914
 31
0.0
 11
75.47774068156772
 21
149.3168671952185
 31
0.0
 11
75.44394630867065
 21
149.2942869928983
 31
0.0
 11
75.42136600421524
 21
149.2604927728599
 31
0.0
 11
75.41343646037542
 21
149.2206300365247
 31
0.0
  0
SPLINE
  5
2B6
330
1F
100
AcDbEntity
  8
0
  6
Continuous
 62
     7
100
AcDbSpline
210
0.0
220
0.0
230
1.0
 70
     8
 71
     3
 72
    15
 73
    11
 74
     9
 42
0.000000001
 43
0.0000000001
 44
0.00000001
 40
0.0
 40
0.0
 40
0.0
 40
0.0
 40
0.0406437567721738
 40
0.0812875654420164
 40
0.1219314456153015
 40
0.1625753758423602
 40
0.2032193060694383
 40
0.2438631862427195
 40
0.2845069949125856
 40
0.3251507516847372
 40
0.3251507516847372
 40
0.3251507516847372
 40
0.3251507516847372
 10
76.03843928738793
 20
149.4609078143025
 30
0.0
 10
76.03687332895319
 20
149.4745412881959
 30
0.0
 10
76.03374139763508
 20
149.5018082507483
 30
0.0
 10
76.00965347754413
 20
149.5364825758591
 30
0.0
 10
75.97522115752098
 20
149.5596501581911
 30
0.0
 10
75.93427214955256
 20
149.5677866290283
 30
0.0
 10
75.89332314158409
 20
149.5596501581911
 30
0.0
 10
75.85889082156089
 20
149.5364825758592
 30
0.0
 10
75.83480290147003
 20
149.5018082507482
 30
0.0
 10
75.83167097015185
 20
149.4745412881959
 30
0.0
 10
75.8301050117171
 20
149.4609078143025
 30
0.0
 11
76.03843928738793
 21
149.4609078143025
 31
0.0
 11
76.03050974354814
 21
149.5007705506378
 31
0.0
 11
76.00792943909273
 21
149.5345647706761
 31
0.0
 11
75.97413506619567
 21
149.5571449729963
 31
0.0
 11
75.93427214955254
 21
149.5650744809692
 31
0.0
 11
75.8944092329094
 21
149.5571449729963
 31
0.0
 11
75.86061486001232
 21
149.5345647706761
 31
0.0
 11
75.83803455555692
 21
149.5007705506377
 31
0.0
 11
75.8301050117171
 21
149.4609078143025
 31
0.0
  0
SPLINE
  5
2B7
330
1F
100
AcDbEntity
  8
0
  6
Continuous
 62
     7
100
AcDbSpline
210
0.0
220
0.0
230
1.0
 70
     8
 71
     3
 72
    15
 73
    11
 74
     9
 42
0.000000001
 43
0.0000000001
 44
0.00000001
 40
0.0
 40
0.0
 40
0.0
 40
0.0
 40
0.0406439146784125
 40
0.0812878496476959
 40
0.1219317505248969
 40
0.1625755837391791
 40
0.2032193560599801
 40
0.2438631099337549
 40
0.2845068978997156
 40
0.3251507516846885
 40
0.3251507516846885
 40
0.3251507516846885
 40
0.3251507516846885
 10
78.17391188510142
 20
149.0102534688118
 30
0.0
 10
78.18650465018008
 20
149.0047993433746
 30
0.0
 10
78.2116901905537
 20
148.993891101882
 30
0.0
 10
78.25376127705647
 20
148.9974361543667
 30
0.0
 10
78.29103189308591
 20
149.0156905824643
 30
0.0
 10
78.3185367508995
 20
149.0470991867148
 30
0.0
 10
78.331944576059
 20
149.0866370703135
 30
0.0
 10
78.32907568033609
 20
149.1280385652546
 30
0.0
 10
78.31107103693174
 20
149.1662271461349
 30
0.0
 10
78.28901467360774
 20
149.1825615984309
 30
0.0
 10
78.27798647876195
 20
149.1907288264599
 30
0.0
 11
78.17391188510142
 21
149.0102534688118
 31
0.0
 11
78.21240565050111
 21
148.9972089958509
 31
0.0
 11
78.25296121969954
 21
148.9998877139928
 31
0.0
 11
78.28940429925616
 21
149.0178829581349
 31
0.0
 11
78.31618726892059
 21
149.0484540861806
 31
0.0
 11
78.32923180088449
 21
149.0869476774654
 31
0.0
 11
78.32655307062616
 21
149.1275030632229
 31
0.0
 11
78.30855774508768
 21
149.1639459779402
 31
0.0
 11
78.27798647876195
 21
149.1907288264599
 31
0.0
  0
SPLINE
  5
2B8
330
1F
100
AcDbEntity
  8
0
  6
Continuous
 62
     7
100
AcDbSpline
210
0.0
220
0.0
230
1.0
 70
     8
 71
     3
 72
    15
 73
    11
 74
     9
 42
0.000000001
 43
0.0000000001
 44
0.00000001
 40
0.0
 40
0.0
 40
0.0
 40
0.0
 40
0.0120820709205377
 40
0.0261213474012436
 40
0.0569591371046523
 40
0.0944963989442098
 40
0.1350739807896738
 40
0.1741163409770287
 40
0.2074919885958363
 40
0.2331016981379958
 40
0.2331016981379958
 40
0.2331016981379958
 40
0.2331016981379958
 10
182.0554980421472
 20
272.0373250375191
 30
0.0
 10
182.054183425885
 20
272.041175143014
 30
0.0
 10
182.0513412213249
 20
272.0494990347729
 30
0.0
 10
182.037877981001
 20
272.0635554793105
 30
0.0
 10
182.0131541930965
 20
272.0764899990407
 30
0.0
 10
181.9775102973203
 20
272.0846777630256
 30
0.0
 10
181.9381326793653
 20
272.0860080064839
 30
0.0
 10
181.9010891914891
 20
272.0797092170364
 30
0.0
 10
181.8692446056444
 20
272.0682939491822
 30
0.0
 10
181.8563332520654
 20
272.0530995205597
 30
0.0
 10
181.8507275265696
 20
272.0465025402376
 30
0.0
 11
182.0554980421472
 21
272.0373250375191
 31
0.0
 11
182.0508413343279
 21
272.0484736555197
 31
0.0
 11
182.041569127242
 21
272.0590153572745
 31
0.0
 11
182.0147862872898
 21
272.0743009255811
 31
0.0
 11
181.9783433308511
 21
272.0832985267914
 31
0.0
 11
181.9377878594314
 21
272.0846378430312
 31
0.0
 11
181.8992941515876
 21
272.0781155482712
 31
0.0
 11
181.8687228938295
 21
272.0647240591552
 31
0.0
 11
181.8507275265696
 21
272.0465025402376
 31
0.0
  0
SPLINE
  5
2B9
330
1F
100
AcDbEntity
  8
0
  6
Continuous
 62
     7
100
AcDbSpline
210
0.0
220
0.0
230
1.0
 70
     8
 71
     3
 72
    15
 73
    11
 74
     9
 42
0.000000001
 43
0.0000000001
 44
0.00000001
 40
0.0
 40
0.0
 40
0.0
 40
0.0
 40
0.0138657734629915
 40
0.0302191819409668
 40
0.0610569711570355
 40
0.0985942326654337
 40
0.1391718141641324
 40
0.1782141742336561
 40
0.2115898222882993
 40
0.2371995323096911
 40
0.2371995323096911
 40
0.2371995323096911
 40
0.2371995323096911
 10
182.0554980421472
 20
272.0373250375191
 30
0.0
 10
182.0547118590655
 20
272.0419687330839
 30
0.0
 10
182.0529984333764
 20
272.0520892365174
 30
0.0
 10
182.0384605236081
 20
272.0675697992848
 30
0.0
 10
182.0132003316596
 20
272.0808005492387
 30
0.0
 10
181.9774957016982
 20
272.0890140819547
 30
0.0
 10
181.9381365721586
 20
272.0903364814918
 30
0.0
 10
181.9010883280283
 20
272.0840397089959
 30
0.0
 10
181.8692447533373
 20
272.0726240146353
 30
0.0
 10
181.8563332969488
 20
272.0574296287016
 30
0.0
 10
181.8507275265696
 20
272.0508326672568
 30
0.0
 11
182.0554980421472
 21
272.0373250375191
 31
0.0
 11
182.0519853606218
 21
272.0507385002334
 31
0.0
 11
182.0415691272419
 21
272.0633454842937
 31
0.0
 11
182.0147862872898
 21
272.0786310526004
 31
0.0
 11
181.9783433308511
 21
272.0876286538107
 31
0.0
 11
181.9377878594314
 21
272.0889679700505
 31
0.0
 11
181.8992941515876
 21
272.0824456752906
 31
0.0
 11
181.8687228938295
 21
272.0690541861745
 31
0.0
 11
181.8507275265696
 21
272.0508326672568
 31
0.0
  0
SPLINE
  5
2BA
330
1F
100
AcDbEntity
  8
0
  6
Continuous
 62
     7
100
AcDbSpline
210
0.0
220
0.0
230
1.0
 70
     8
 71
     3
 72
    11
 73
     7
 74
     5
 42
0.000000001
 43
0.0000000001
 44
0.00000001
 40
0.0
 40
0.0
 40
0.0
 40
0.0
 40
0.0176277794199671
 40
0.0283496224386752
 40
0.0416896301940058
 40
0.0501288876835744
 40
0.0501288876835744
 40
0.0501288876835744
 40
0.0501288876835744
 10
181.8213020299688
 20
272.1023413410205
 30
0.0
 10
181.8264640640791
 20
272.1052254795329
 30
0.0
 10
181.8347658242541
 20
272.1098638635682
 30
0.0
 10
181.8447697170942
 20
272.1195632979055
 30
0.0
 10
181.8508063907983
 20
272.1290597816087
 30
0.0
 10
181.8515311464337
 20
272.1363465143882
 30
0.0
 10
181.8518119758465
 20
272.1391700549448
 30
0.0
 11
181.8213020299688
 21
272.1023413410205
 31
0.0
 11
181.8362085793996
 21
272.1117505528078
 31
0.0
 11
181.8438824040655
 21
272.1192385682383
 31
0.0
 11
181.8504709186677
 21
272.130838027091
 31
0.0
 11
181.8518119758465
 21
272.1391700549448
 31
0.0
  0
SPLINE
  5
2BB
330
1F
100
AcDbEntity
  8
0
  6
Continuous
 62
     7
100
AcDbSpline
210
0.0
220
0.0
230
1.0
 70
     8
 71
     3
 72
     9
 73
     5
 74
     3
 42
0.000000001
 43
0.0000000001
 44
0.00000001
 40
0.0
 40
0.0
 40
0.0
 40
0.0
 40
0.0199816239849305
 40
0.045711786426439
 40
0.045711786426439
 40
0.045711786426439
 40
0.045711786426439
 10
181.7436802485848
 20
271.4566630231735
 30
0.0
 10
181.7409749930629
 20
271.4629401304037
 30
0.0
 10
181.7347861873786
 20
271.4773002029337
 30
0.0
 10
181.7209555858068
 20
271.4848894770465
 30
0.0
 10
181.7131706358737
 20
271.4891613051869
 30
0.0
 11
181.7436802485848
 21
271.4566630231735
 31
0.0
 11
181.7341043147171
 21
271.4742006078674
 31
0.0
 11
181.7131706358737
 21
271.4891613051869
 31
0.0
  0
SPLINE
  5
2BC
330
1F
100
AcDbEntity
  8
0
  6
Continuous
 62
     7
100
AcDbSpline
210
0.0
220
0.0
230
1.0
 70
     8
 71
     3
 72
     9
 73
     5
 74
     3
 42
0.000000001
 43
0.0000000001
 44
0.00000001
 40
0.0
 40
0.0
 40
0.0
 40
0.0
 40
0.0214507538947565
 40
0.0496531152847721
 40
0.0496531152847721
 40
0.0496531152847721
 40
0.0496531152847721
 10
181.7436802485848
 20
271.4566630231735
 30
0.0
 10
181.7417027476836
 20
271.4638165338766
 30
0.0
 10
181.7371253120121
 20
271.480375108152
 30
0.0
 10
181.7218479807625
 20
271.4887401807617
 30
0.0
 10
181.7131706358737
 20
271.4934914322062
 30
0.0
 11
181.7436802485848
 21
271.4566630231735
 31
0.0
 11
181.735750768553
 21
271.4765943629559
 31
0.0
 11
181.7131706358737
 21
271.4934914322062
 31
0.0
  0
SPLINE
  5
2BD
330
1F
100
AcDbEntity
  8
0
  6
Continuous
 62
     7
100
AcDbSpline
210
0.0
220
0.0
230
1.0
 70
     8
 71
     3
 72
    11
 73
     7
 74
     5
 42
0.000000001
 43
0.0000000001
 44
0.00000001
 40
0.0
 40
0.0
 40
0.0
 40
0.0
 40
0.0485908804882015
 40
0.1024983168772634
 40
0.1510954430010745
 40
0.1867646267850356
 40
0.1867646267850356
 40
0.1867646267850356
 40
0.1867646267850356
 10
181.6905835435089
 20
271.6520999320588
 30
0.0
 10
181.7060054450365
 20
271.6466549076923
 30
0.0
 10
181.7385366340193
 20
271.6351691078376
 30
0.0
 10
181.7892376579193
 20
271.6369805116584
 30
0.0
 10
181.8363618507681
 20
271.6462990997119
 30
0.0
 10
181.8563737251319
 20
271.6667610697942
 30
0.0
 10
181.8648445701662
 20
271.6754224462717
 30
0.0
 11
181.6905835435089
 21
271.6520999320588
 31
0.0
 11
181.7372678788562
 21
271.6386223151848
 31
0.0
 11
181.7911753147642
 21
271.6386162519068
 31
0.0
 11
181.8378683357287
 21
271.6520863445793
 31
0.0
 11
181.8648445701662
 21
271.6754224462717
 31
0.0
  0
SPLINE
  5
2BE
330
1F
100
AcDbEntity
  8
0
  6
Continuous
 62
     7
100
AcDbSpline
210
0.0
220
0.0
230
1.0
 70
     8
 71
     3
 72
    13
 73
     9
 74
     7
 42
0.000000001
 43
0.0000000001
 44
0.00000001
 40
0.0
 40
0.0
 40
0.0
 40
0.0
 40
0.0199816203769651
 40
0.0457117788514754
 40
0.0813420637704968
 40
0.1214015505985946
 40
0.1614610827162436
 40
0.1970914958261001
 40
0.1970914958261001
 40
0.1970914958261001
 40
0.1970914958261001
 10
181.8518119758465
 20
272.1391700549448
 30
0.0
 10
181.8490962310037
 20
272.1453994772607
 30
0.0
 10
181.842883431133
 20
272.1596504625439
 30
0.0
 10
181.8185228650899
 20
272.1742933354291
 30
0.0
 10
181.7864064538723
 20
272.1846280839122
 30
0.0
 10
181.7476757794097
 20
272.1880152988622
 30
0.0
 10
181.7087689465437
 20
272.1850911033035
 30
0.0
 10
181.6851204495229
 20
272.1759644644505
 30
0.0
 10
181.6739881172216
 20
272.1716681703749
 30
0.0
 11
181.8518119758465
 21
272.1391700549448
 31
0.0
 11
181.8422360419788
 21
272.1567076396388
 31
0.0
 11
181.8213023631354
 21
272.1716683369583
 31
0.0
 11
181.7875081177353
 21
272.1829584254375
 31
0.0
 11
181.7476453091796
 21
272.1869231433137
 31
0.0
 11
181.7077824647569
 21
272.1829583352836
 31
0.0
 11
181.6739881172216
 21
272.1716681703749
 31
0.0
  0
SPLINE
  5
2BF
330
1F
100
AcDbEntity
  8
0
  6
Continuous
 62
     7
100
AcDbSpline
210
0.0
220
0.0
230
1.0
 70
     8
 71
     3
 72
    13
 73
     9
 74
     7
 42
0.000000001
 43
0.0000000001
 44
0.00000001
 40
0.0
 40
0.0
 40
0.0
 40
0.0
 40
0.0214507501062748
 40
0.0496531079077638
 40
0.0852833926086333
 40
0.1253428795030283
 40
0.1654024114629259
 40
0.2010328248952632
 40
0.2010328248952632
 40
0.2010328248952632
 40
0.2010328248952632
 10
181.8518119758465
 20
272.1391700549448
 30
0.0
 10
181.8498287850688
 20
272.1462673166234
 30
0.0
 10
181.8452381814935
 20
272.1626956896772
 30
0.0
 10
181.8191325590285
 20
272.1783927094882
 30
0.0
 10
181.7864643575461
 20
272.1889511332196
 30
0.0
 10
181.7476595184002
 20
272.1923474127663
 30
0.0
 10
181.7087724917227
 20
272.189420798093
 30
0.0
 10
181.6851215843687
 20
272.1802944528071
 30
0.0
 10
181.6739881172216
 20
272.1759982973941
 30
0.0
 11
181.8518119758465
 21
272.1391700549448
 31
0.0
 11
181.8438824958147
 21
272.1591013947273
 31
0.0
 11
181.8213023631354
 21
272.1759984639775
 31
0.0
 11
181.7875081177353
 21
272.1872885524567
 31
0.0
 11
181.7476453091796
 21
272.1912532703328
 31
0.0
 11
181.7077824647569
 21
272.1872884623027
 31
0.0
 11
181.6739881172216
 21
272.1759982973941
 31
0.0
  0
SPLINE
  5
2C0
330
1F
100
AcDbEntity
  8
0
  6
Continuous
 62
     7
100
AcDbSpline
210
0.0
220
0.0
230
1.0
 70
     8
 71
     3
 72
    20
 73
    16
 74
    14
 42
0.000000001
 43
0.0000000001
 44
0.00000001
 40
0.0
 40
0.0
 40
0.0
 40
0.0
 40
0.0148694166191334
 40
0.0308367343296911
 40
0.0451337749473567
 40
0.065276440875083
 40
0.0770192374294803
 40
0.0944634804594037
 40
0.1159375501631109
 40
0.1341565700247205
 40
0.159693675742405
 40
0.1721260584428335
 40
0.1830297074499764
 40
0.1941900297967862
 40
0.2017780675432387
 40
0.2017780675432387
 40
0.2017780675432387
 40
0.2017780675432387
 10
181.5658560567933
 20
271.4198341426659
 30
0.0
 10
181.5703824617715
 20
271.4178002700492
 30
0.0
 10
181.5797694875193
 20
271.4135823595818
 30
0.0
 10
181.5943099586476
 20
271.4095299949184
 30
0.0
 10
181.6108096996034
 20
271.4063203460132
 30
0.0
 10
181.6261626124407
 20
271.4048010642023
 30
0.0
 10
181.6426074660043
 20
271.4044268704243
 30
0.0
 10
181.6594944823992
 20
271.4052328221515
 30
0.0
 10
181.6783911672831
 20
271.4079616288509
 30
0.0
 10
181.6994499352912
 20
271.4134749006985
 30
0.0
 10
181.7168237344902
 20
271.4209420349107
 30
0.0
 10
181.7301535527444
 20
271.4304778426607
 30
0.0
 10
181.7380241485369
 20
271.4389167850087
 30
0.0
 10
181.742900537307
 20
271.4478585909563
 30
0.0
 10
181.7434556005051
 20
271.4541262912803
 30
0.0
 10
181.7436802485848
 20
271.4566630231735
 30
0.0
 11
181.5658560567933
 21
271.4198341426659
 31
0.0
 11
181.5795625566616
 21
271.4140694956192
 31
0.0
 11
181.5948915745007
 21
271.4095999968004
 31
0.0
 11
181.608926568282
 21
271.4068752357709
 31
0.0
 11
181.6289668402135
 21
271.4048468144014
 31
0.0
 11
181.6407066305345
 21
271.4045811204383
 31
0.0
 11
181.6581307993903
 21
271.4054177510267
 31
0.0
 11
181.6793760620717
 21
271.4085441664806
 31
0.0
 11
181.6969839580777
 21
271.4132233407885
 31
0.0
 11
181.7202495204288
 21
271.4237522219985
 31
0.0
 11
181.7302751836238
 21
271.4311041060367
 31
0.0
 11
181.7376223173283
 21
271.4391607281303
 31
0.0
 11
181.7425921661063
 21
271.4491533933286
 31
0.0
 11
181.7436802485848
 21
271.4566630231735
 31
0.0
  0
SPLINE
  5
2C1
330
1F
100
AcDbEntity
  8
0
  6
Continuous
 62
     7
100
AcDbSpline
210
0.0
220
0.0
230
1.0
 70
     8
 71
     3
 72
     9
 73
     5
 74
     3
 42
0.000000001
 43
0.0000000001
 44
0.00000001
 40
0.0
 40
0.0
 40
0.0
 40
0.0
 40
0.0214507538949045
 40
0.0496531152848177
 40
0.0496531152848177
 40
0.0496531152848177
 40
0.0496531152848177
 10
180.2253595238711
 20
271.0373067528868
 30
0.0
 10
180.2233820229698
 20
271.04446026359
 30
0.0
 10
180.2188045872985
 20
271.0610188378653
 30
0.0
 10
180.2035272560489
 20
271.0693839104752
 30
0.0
 10
180.1948499111601
 20
271.0741351619196
 30
0.0
 11
180.2253595238711
 21
271.0373067528868
 31
0.0
 11
180.2174300438393
 21
271.0572380926694
 31
0.0
 11
180.1948499111601
 21
271.0741351619196
 31
0.0
  0
SPLINE
  5
2C2
330
1F
100
AcDbEntity
  8
0
  6
Continuous
 62
     7
100
AcDbSpline
210
0.0
220
0.0
230
1.0
 70
     8
 71
     3
 72
     9
 73
     5
 74
     3
 42
0.000000001
 43
0.0000000001
 44
0.00000001
 40
0.0
 40
0.0
 40
0.0
 40
0.0
 40
0.0486294253347423
 40
0.1025754614840632
 40
0.1025754614840632
 40
0.1025754614840632
 40
0.1025754614840632
 10
180.5120665779956
 20
271.0628414493021
 30
0.0
 10
180.527490266343
 20
271.0572811899705
 30
0.0
 10
180.5600239051157
 20
271.0455527924728
 30
0.0
 10
180.5945682036934
 20
271.048053220323
 30
0.0
 10
180.6127355902675
 20
271.0493682446818
 30
0.0
 11
180.5120665779956
 21
271.0628414493021
 31
0.0
 11
180.5587895535627
 21
271.0493586936938
 31
0.0
 11
180.6127355902675
 21
271.0493682446818
 31
0.0
  0
SPLINE
  5
2C3
330
1F
100
AcDbEntity
  8
0
  6
Continuous
 62
     7
100
AcDbSpline
210
0.0
220
0.0
230
1.0
 70
     8
 71
     3
 72
     9
 73
     5
 74
     3
 42
0.000000001
 43
0.0000000001
 44
0.00000001
 40
0.0
 40
0.0
 40
0.0
 40
0.0
 40
0.019981623985003
 40
0.0457117864265314
 40
0.0457117864265314
 40
0.0457117864265314
 40
0.0457117864265314
 10
180.2253595238711
 20
271.0373067528868
 30
0.0
 10
180.2226542683492
 20
271.0435838601169
 30
0.0
 10
180.2164654626651
 20
271.0579439326473
 30
0.0
 10
180.2026348610932
 20
271.0655332067599
 30
0.0
 10
180.1948499111601
 20
271.0698050349004
 30
0.0
 11
180.2253595238711
 21
271.0373067528868
 31
0.0
 11
180.2157835900035
 21
271.0548443375808
 31
0.0
 11
180.1948499111601
 21
271.0698050349004
 31
0.0
  0
SPLINE
  5
2C4
330
1F
100
AcDbEntity
  8
0
  6
Continuous
 62
     7
100
AcDbSpline
210
0.0
220
0.0
230
1.0
 70
     8
 71
     3
 72
    11
 73
     7
 74
     5
 42
0.000000001
 43
0.0000000001
 44
0.00000001
 40
0.0
 40
0.0
 40
0.0
 40
0.0
 40
0.055207415013322
 40
0.1154645878370223
 40
0.1659936419848081
 40
0.1998393679114473
 40
0.1998393679114473
 40
0.1998393679114473
 40
0.1998393679114473
 10
180.4562877864653
 20
272.1219323437829
 30
0.0
 10
180.4385980577374
 20
272.1278850261317
 30
0.0
 10
180.4016005401517
 20
272.1403348638522
 30
0.0
 10
180.3467345234654
 20
272.1355588104563
 30
0.0
 10
180.295612334661
 20
272.122323099545
 30
0.0
 10
180.2833730072641
 20
272.0957593665794
 30
0.0
 10
180.2784633832138
 20
272.085103704009
 30
0.0
 11
180.4562877864653
 21
272.1219323437829
 31
0.0
 11
180.4029517987151
 21
272.1361847204012
 31
0.0
 11
180.342767474479
 21
272.1332226407844
 31
0.0
 11
180.2960217175237
 21
272.1140387754737
 31
0.0
 11
180.2784633832138
 21
272.085103704009
 31
0.0
  0
SPLINE
  5
2C5
330
1F
100
AcDbEntity
  8
0
  6
Continuous
 62
     7
100
AcDbSpline
210
0.0
220
0.0
230
1.0
 70
     8
 71
     3
 72
     9
 73
     5
 74
     3
 42
0.000000001
 43
0.0000000001
 44
0.00000001
 40
0.0
 40
0.0
 40
0.0
 40
0.0
 40
0.0586691802518753
 40
0.0969756044397282
 40
0.0969756044397282
 40
0.0969756044397282
 40
0.0969756044397282
 10
180.820150327724
 20
272.1977695674929
 30
0.0
 10
180.7993159576457
 20
272.1945850631726
 30
0.0
 10
180.7648783697915
 20
272.1893213086217
 30
0.0
 10
180.7491918207917
 20
272.1593189447754
 30
0.0
 10
180.7429954682839
 20
272.1474676780744
 30
0.0
 11
180.820150327724
 21
272.1977695674929
 31
0.0
 11
180.7645103243518
 21
272.1791614211111
 31
0.0
 11
180.7429954682839
 21
272.1474676780744
 31
0.0
  0
SPLINE
  5
2C6
330
1F
100
AcDbEntity
  8
0
  6
Continuous
 62
     7
100
AcDbSpline
210
0.0
220
0.0
230
1.0
 70
     8
 71
     3
 72
    13
 73
     9
 74
     7
 42
0.000000001
 43
0.0000000001
 44
0.00000001
 40
0.0
 40
0.0
 40
0.0
 40
0.0
 40
0.0068393687584454
 40
0.0140747496573171
 40
0.0396843117937755
 40
0.0730598200085456
 40
0.1121021071884962
 40
0.1526797125495612
 40
0.1526797125495612
 40
0.1526797125495612
 40
0.1526797125495612
 10
181.6481259360597
 20
272.2410150720633
 30
0.0
 10
181.6479477120609
 20
272.2433005299169
 30
0.0
 10
181.6475809344871
 20
272.2480037756958
 30
0.0
 10
181.6423397501693
 20
272.2603720119364
 30
0.0
 10
181.6251302329547
 20
272.2757562378226
 30
0.0
 10
181.5945331700021
 20
272.2878476263892
 30
0.0
 10
181.5570198513813
 20
272.2943158766737
 30
0.0
 10
181.5304754179712
 20
272.2923278356708
 30
0.0
 10
181.5169472713907
 20
272.291314645773
 30
0.0
 11
181.6481259360597
 21
272.2410150720633
 31
0.0
 11
181.6472389279473
 21
272.2477966871801
 31
0.0
 11
181.6445627428016
 21
272.2545189478353
 31
0.0
 11
181.626567540381
 21
272.2727404260547
 31
0.0
 11
181.5959964037676
 21
272.2861318460308
 31
0.0
 11
181.5575027549269
 21
272.2926540537332
 31
0.0
 11
181.5169472713907
 21
272.291314645773
 31
0.0
  0
SPLINE
  5
2C7
330
1F
100
AcDbEntity
  8
0
  6
Continuous
 62
     7
100
AcDbSpline
210
0.0
220
0.0
230
1.0
 70
     8
 71
     3
 72
    11
 73
     7
 74
     5
 42
0.000000001
 43
0.0000000001
 44
0.00000001
 40
0.0
 40
0.0
 40
0.0
 40
0.0
 40
0.0552077900114938
 40
0.1154650287098846
 40
0.1632126866368755
 40
0.1961797168783891
 40
0.1961797168783891
 40
0.1961797168783891
 40
0.1961797168783891
 10
180.4562882995928
 20
272.1176024733275
 30
0.0
 10
180.4386245993231
 20
272.1235497401029
 30
0.0
 10
180.4016816289459
 20
272.1359882130689
 30
0.0
 10
180.347326546227
 20
272.1313753283614
 30
0.0
 10
180.2987304308331
 20
272.1184623774009
 30
0.0
 10
180.2843407041379
 20
272.0947775266512
 30
0.0
 10
180.2784633832138
 20
272.085103704009
 30
0.0
 11
180.4562882995928
 21
272.1176024733275
 31
0.0
 11
180.402951862856
 21
272.1318546254524
 31
0.0
 11
180.342767474479
 21
272.1288925137652
 31
0.0
 11
180.298336510769
 21
272.1114073947712
 31
0.0
 11
180.2784633832138
 21
272.085103704009
 31
0.0
  0
SPLINE
  5
2C8
330
1F
100
AcDbEntity
  8
0
  6
Continuous
 62
     7
100
AcDbSpline
210
0.0
220
0.0
230
1.0
 70
     8
 71
     3
 72
    14
 73
    10
 74
     8
 42
0.000000001
 43
0.0000000001
 44
0.00000001
 40
0.0
 40
0.0
 40
0.0
 40
0.0
 40
0.0048220273400632
 40
0.0098562261954827
 40
0.0262237788266861
 40
0.0458800548016337
 40
0.0690524429256815
 40
0.1080947300437186
 40
0.1486723353665604
 40
0.1486723353665604
 40
0.1486723353665604
 40
0.1486723353665604
 10
181.618953149725
 20
271.2243994116676
 30
0.0
 10
181.6184877984701
 20
271.2259388862619
 30
0.0
 10
181.6175366081142
 20
271.2290855689796
 30
0.0
 10
181.6139438424608
 20
271.2370921042419
 30
0.0
 10
181.6046225839862
 20
271.2475924443689
 30
0.0
 10
181.5877109526978
 20
271.2580618842645
 30
0.0
 10
181.5619960690647
 20
271.2675304987848
 30
0.0
 10
181.5278398245355
 20
271.273356059626
 30
0.0
 10
181.5013001870146
 20
271.2713773121026
 30
0.0
 10
181.487774485056
 20
271.270368858358
 30
0.0
 11
181.618953149725
 21
271.2243994116676
 31
0.0
 11
181.6174615510928
 21
271.228984947903
 31
0.0
 11
181.6153899564669
 21
271.2335731604204
 31
0.0
 11
181.6049329582983
 21
271.2461647440162
 31
0.0
 11
181.5884592237729
 21
271.2568878601251
 31
0.0
 11
181.5668236174329
 21
271.2651860586158
 31
0.0
 11
181.5283299685922
 21
271.2717082663183
 31
0.0
 11
181.487774485056
 21
271.270368858358
 31
0.0
  0
SPLINE
  5
2C9
330
1F
100
AcDbEntity
  8
0
  6
Continuous
 62
     7
100
AcDbSpline
210
0.0
220
0.0
230
1.0
 70
     8
 71
     3
 72
    11
 73
     7
 74
     5
 42
0.000000001
 43
0.0000000001
 44
0.00000001
 40
0.0
 40
0.0
 40
0.0
 40
0.0
 40
0.0375373608961169
 40
0.0683752961209611
 40
0.0847289131940831
 40
0.0985948310596752
 40
0.0985948310596752
 40
0.0985948310596752
 40
0.0985948310596752
 10
181.5417979986594
 20
271.1740953568075
 30
0.0
 10
181.5541635924367
 20
271.1764251273718
 30
0.0
 10
181.5766878455523
 20
271.1806688715776
 30
0.0
 10
181.6019114273421
 20
271.1941851948351
 30
0.0
 10
181.6164540775516
 20
271.2096304344962
 30
0.0
 10
181.6181671368654
 20
271.21975421754
 30
0.0
 10
181.618953149725
 20
271.2243994116676
 30
0.0
 11
181.5417979986594
 21
271.1740953568075
 31
0.0
 11
181.5782410231072
 21
271.1830930653675
 31
0.0
 11
181.6050239994267
 21
271.1983786978079
 31
0.0
 11
181.6154404075087
 21
271.2109858192449
 31
0.0
 11
181.618953149725
 21
271.2243994116676
 31
0.0
  0
SPLINE
  5
2CA
330
1F
100
AcDbEntity
  8
0
  6
Continuous
 62
     7
100
AcDbSpline
210
0.0
220
0.0
230
1.0
 70
     8
 71
     3
 72
     9
 73
     5
 74
     3
 42
0.000000001
 43
0.0000000001
 44
0.00000001
 40
0.0
 40
0.0
 40
0.0
 40
0.0
 40
0.0214507538947775
 40
0.0496531152847476
 40
0.0496531152847476
 40
0.0496531152847476
 40
0.0496531152847476
 10
180.8146178401929
 20
271.3319359110478
 30
0.0
 10
180.8126403392916
 20
271.3390894217509
 30
0.0
 10
180.8080629036201
 20
271.3556479960262
 30
0.0
 10
180.7927855723705
 20
271.364013068636
 30
0.0
 10
180.7841082274818
 20
271.3687643200805
 30
0.0
 11
180.8146178401929
 21
271.3319359110478
 31
0.0
 11
180.806688360161
 21
271.3518672508302
 31
0.0
 11
180.7841082274818
 21
271.3687643200805
 31
0.0
  0
SPLINE
  5
2CB
330
1F
100
AcDbEntity
  8
0
  6
Continuous
 62
     7
100
AcDbSpline
210
0.0
220
0.0
230
1.0
 70
     8
 71
     3
 72
    11
 73
     7
 74
     5
 42
0.000000001
 43
0.0000000001
 44
0.00000001
 40
0.0
 40
0.0
 40
0.0
 40
0.0
 40
0.0375373679175389
 40
0.0683753030380692
 40
0.084728920111173
 40
0.0985948379767724
 40
0.0985948379767724
 40
0.0985948379767724
 40
0.0985948379767724
 10
181.5709707696942
 20
272.1907110456946
 30
0.0
 10
181.5833363683186
 20
272.1930408057017
 30
0.0
 10
181.6058606283287
 20
272.1972845303125
 30
0.0
 10
181.6310842138872
 20
272.2108008553255
 30
0.0
 10
181.6456268638584
 20
272.2262460948817
 30
0.0
 10
181.6473399231913
 20
272.2363698779324
 30
0.0
 10
181.6481259360597
 20
272.2410150720633
 30
0.0
 11
181.5709707696942
 21
272.1907110456946
 31
0.0
 11
181.6074138075294
 21
272.1997087293246
 31
0.0
 11
181.6341967857614
 21
272.2149943582036
 31
0.0
 11
181.6446131938434
 21
272.2276014796406
 31
0.0
 11
181.6481259360597
 21
272.2410150720633
 31
0.0
  0
SPLINE
  5
2CC
330
1F
100
AcDbEntity
  8
0
  6
Continuous
 62
     7
100
AcDbSpline
210
0.0
220
0.0
230
1.0
 70
     8
 71
     3
 72
    14
 73
    10
 74
     8
 42
0.000000001
 43
0.0000000001
 44
0.00000001
 40
0.0
 40
0.0
 40
0.0
 40
0.0
 40
0.0048220273400807
 40
0.0098562261954769
 40
0.0262237788266621
 40
0.0458800548016335
 40
0.0690524429256814
 40
0.1080947300436904
 40
0.1486723353665607
 40
0.1486723353665607
 40
0.1486723353665607
 40
0.1486723353665607
 10
181.6481259360597
 20
272.2410150720633
 30
0.0
 10
181.6476605848048
 20
272.2425545466576
 30
0.0
 10
181.6467093944488
 20
272.2457012293752
 30
0.0
 10
181.6431166287957
 20
272.2537077646379
 30
0.0
 10
181.6337953703207
 20
272.2642081047644
 30
0.0
 10
181.6168837390326
 20
272.2746775446602
 30
0.0
 10
181.5911688553993
 20
272.2841461591804
 30
0.0
 10
181.5570126108701
 20
272.2899717200217
 30
0.0
 10
181.5304729733494
 20
272.2879929724984
 30
0.0
 10
181.5169472713907
 20
272.2869845187537
 30
0.0
 11
181.6481259360597
 21
272.2410150720633
 31
0.0
 11
181.6466343374275
 21
272.2456006082987
 31
0.0
 11
181.6445627428016
 21
272.2501888208161
 31
0.0
 11
181.634105744633
 21
272.2627804044119
 31
0.0
 11
181.6176320101076
 21
272.2735035205208
 31
0.0
 11
181.5959964037676
 21
272.2818017190115
 31
0.0
 11
181.5575027549269
 21
272.288323926714
 31
0.0
 11
181.5169472713907
 21
272.2869845187537
 31
0.0
  0
SPLINE
  5
2CD
330
1F
100
AcDbEntity
  8
0
  6
Continuous
 62
     7
100
AcDbSpline
210
0.0
220
0.0
230
1.0
 70
     8
 71
     3
 72
    13
 73
     9
 74
     7
 42
0.000000001
 43
0.0000000001
 44
0.00000001
 40
0.0
 40
0.0
 40
0.0
 40
0.0
 40
0.0068393687583853
 40
0.0140747496573309
 40
0.0396843117937693
 40
0.0730598200085394
 40
0.1121021071885181
 40
0.1526797125495546
 40
0.1526797125495546
 40
0.1526797125495546
 40
0.1526797125495546
 10
181.618953149725
 20
271.2243994116676
 30
0.0
 10
181.6187749257263
 20
271.2266848695213
 30
0.0
 10
181.6184081481524
 20
271.2313881153
 30
0.0
 10
181.6131669638347
 20
271.2437563515408
 30
0.0
 10
181.59595744662
 20
271.2591405774269
 30
0.0
 10
181.5653603836674
 20
271.2712319659935
 30
0.0
 10
181.5278470650465
 20
271.277700216278
 30
0.0
 10
181.5013026316366
 20
271.2757121752754
 30
0.0
 10
181.487774485056
 20
271.2746989853773
 30
0.0
 11
181.618953149725
 21
271.2243994116676
 31
0.0
 11
181.6180661416126
 21
271.2311810267843
 31
0.0
 11
181.6153899564669
 21
271.2379032874396
 31
0.0
 11
181.5973947540463
 21
271.256124765659
 31
0.0
 11
181.5668236174329
 21
271.2695161856351
 31
0.0
 11
181.5283299685922
 21
271.2760383933375
 31
0.0
 11
181.487774485056
 21
271.2746989853773
 31
0.0
  0
SPLINE
  5
2CE
330
1F
100
AcDbEntity
  8
0
  6
Continuous
 62
     7
100
AcDbSpline
210
0.0
220
0.0
230
1.0
 70
     8
 71
     3
 72
     9
 73
     5
 74
     3
 42
0.000000001
 43
0.0000000001
 44
0.00000001
 40
0.0
 40
0.0
 40
0.0
 40
0.0
 40
0.0557877391005922
 40
0.0934198786101381
 40
0.0934198786101381
 40
0.0934198786101381
 40
0.0934198786101381
 10
180.8201504650968
 20
272.1934391846594
 30
0.0
 10
180.8006953882635
 20
272.1903530442165
 30
0.0
 10
180.7681167173222
 20
272.1851851022632
 30
0.0
 10
180.7502091368648
 20
272.1582983994113
 30
0.0
 10
180.7429954682839
 20
272.1474676780744
 30
0.0
 11
180.8201504650968
 21
272.1934391846594
 31
0.0
 11
180.7670171628852
 21
272.1764355279033
 31
0.0
 11
180.7429954682839
 21
272.1474676780744
 31
0.0
  0
SPLINE
  5
2CF
330
1F
100
AcDbEntity
  8
0
  6
Continuous
 62
     7
100
AcDbSpline
210
0.0
220
0.0
230
1.0
 70
     8
 71
     3
 72
     9
 73
     5
 74
     3
 42
0.000000001
 43
0.0000000001
 44
0.00000001
 40
0.0
 40
0.0
 40
0.0
 40
0.0
 40
0.0214508754748233
 40
0.0496534286403978
 40
0.0496534286403978
 40
0.0496534286403978
 40
0.0496534286403978
 10
180.7429954682839
 20
272.1474676780744
 30
0.0
 10
180.7449729863494
 20
272.1403141290733
 30
0.0
 10
180.7495504646953
 20
272.1237554555008
 30
0.0
 10
180.7648278943006
 20
272.1153903350855
 30
0.0
 10
180.7735052992981
 20
272.1106390541643
 30
0.0
 11
180.7429954682839
 21
272.1474676780744
 31
0.0
 11
180.7509250076324
 21
272.1275362310421
 31
0.0
 11
180.7735052992981
 21
272.1106390541643
 31
0.0
  0
SPLINE
  5
2D0
330
1F
100
AcDbEntity
  8
0
  6
Continuous
 62
     7
100
AcDbSpline
210
0.0
220
0.0
230
1.0
 70
     8
 71
     3
 72
     9
 73
     5
 74
     3
 42
0.000000001
 43
0.0000000001
 44
0.00000001
 40
0.0
 40
0.0
 40
0.0
 40
0.0
 40
0.019981623984858
 40
0.0457117864263863
 40
0.0457117864263863
 40
0.0457117864263863
 40
0.0457117864263863
 10
180.8146178401929
 20
271.3319359110478
 30
0.0
 10
180.8119125846709
 20
271.3382130182778
 30
0.0
 10
180.8057237789866
 20
271.352573090808
 30
0.0
 10
180.7918931774148
 20
271.3601623649208
 30
0.0
 10
180.7841082274818
 20
271.3644341930612
 30
0.0
 11
180.8146178401929
 21
271.3319359110478
 31
0.0
 11
180.8050419063252
 21
271.3494734957416
 31
0.0
 11
180.7841082274818
 21
271.3644341930612
 31
0.0
  0
SPLINE
  5
2D1
330
1F
100
AcDbEntity
  8
0
  6
Continuous
 62
     7
100
AcDbSpline
210
0.0
220
0.0
230
1.0
 70
     8
 71
     3
 72
    20
 73
    16
 74
    14
 42
0.000000001
 43
0.0000000001
 44
0.00000001
 40
0.0
 40
0.0
 40
0.0
 40
0.0
 40
0.0170797820281864
 40
0.0308350856288805
 40
0.0451321262693294
 40
0.0652747921741241
 40
0.0770175887119067
 40
0.094461831722135
 40
0.1159359014071218
 40
0.1341549212558397
 40
0.1596920269562553
 40
0.1703083015903673
 40
0.1830232403056788
 40
0.1941835626405475
 40
0.2017716003818601
 40
0.2017716003818601
 40
0.2017716003818601
 40
0.2017716003818601
 10
180.6367936484014
 20
271.2951070305402
 30
0.0
 10
180.6420063933778
 20
271.292796185802
 30
0.0
 10
180.6514172562825
 20
271.2886242960094
 30
0.0
 10
180.6659709480184
 20
271.284662995049
 30
0.0
 10
180.6817475598339
 20
271.2815928472476
 30
0.0
 10
180.6971001518142
 20
271.2800740123343
 30
0.0
 10
180.7135450916659
 20
271.279699747947
 30
0.0
 10
180.7304319390547
 20
271.2805056523105
 30
0.0
 10
180.7493293215383
 20
271.2832348006505
 30
0.0
 10
180.7703855037899
 20
271.2887467595224
 30
0.0
 10
180.787208018421
 20
271.2959777692302
 30
0.0
 10
180.800601012788
 20
271.3053566471924
 30
0.0
 10
180.8086671320485
 20
271.313646038986
 30
0.0
 10
180.8138376386734
 20
271.3231310921811
 30
0.0
 10
180.8143930508398
 20
271.3293990677615
 30
0.0
 10
180.8146178401929
 20
271.3319359110478
 30
0.0
 11
180.6367936484014
 21
271.2951070305402
 31
0.0
 11
180.6525952494454
 21
271.2886241253211
 31
0.0
 11
180.6658291661088
 21
271.2848728846747
 31
0.0
 11
180.679864159889
 21
271.2821481236453
 31
0.0
 11
180.6999044318216
 21
271.2801197022756
 31
0.0
 11
180.7116442221415
 21
271.2798540083124
 31
0.0
 11
180.7290683909974
 21
271.2806906389008
 31
0.0
 11
180.7503136536798
 21
271.2838170543548
 31
0.0
 11
180.7679215496866
 21
271.2884962286631
 31
0.0
 11
180.7911871120368
 21
271.2990251098727
 31
0.0
 11
180.7998316199262
 21
271.3051877195359
 31
0.0
 11
180.8085599089363
 21
271.3144336160045
 31
0.0
 11
180.8135297577147
 21
271.324426281204
 31
0.0
 11
180.8146178401929
 21
271.3319359110478
 31
0.0
  0
SPLINE
  5
2D2
330
1F
100
AcDbEntity
  8
0
  6
Continuous
 62
     7
100
AcDbSpline
210
0.0
220
0.0
230
1.0
 70
     8
 71
     3
 72
    11
 73
     7
 74
     5
 42
0.000000001
 43
0.0000000001
 44
0.00000001
 40
0.0
 40
0.0
 40
0.0
 40
0.0
 40
0.1710252651245859
 40
0.3633104721066132
 40
0.5555956790886971
 40
0.7266209442133639
 40
0.7266209442133639
 40
0.7266209442133639
 40
0.7266209442133639
 10
165.5490025635808
 20
278.7473088065419
 30
0.0
 10
165.6024477538388
 20
278.7266403002855
 30
0.0
 10
165.7159818453787
 20
278.6827340257098
 30
0.0
 10
165.9025559541741
 20
278.6695082111347
 30
0.0
 10
166.0891300629693
 20
278.6827340257098
 30
0.0
 10
166.2026641545094
 20
278.7266403002855
 30
0.0
 10
166.2561093447674
 20
278.7473088065419
 30
0.0
 11
165.5490025635808
 21
278.7473088065419
 31
0.0
 11
165.711214819765
 21
278.6931163209736
 31
0.0
 11
165.902555954174
 21
278.6740855018387
 31
0.0
 11
166.0938970885831
 21
278.6931163209736
 31
0.0
 11
166.2561093447674
 21
278.7473088065419
 31
0.0
  0
SPLINE
  5
2D3
330
1F
100
AcDbEntity
  8
0
  6
Continuous
 62
     7
100
AcDbSpline
210
0.0
220
0.0
230
1.0
 70
     8
 71
     3
 72
     9
 73
     5
 74
     3
 42
0.000000001
 43
0.0000000001
 44
0.00000001
 40
0.0
 40
0.0
 40
0.0
 40
0.0
 40
0.0214507538949255
 40
0.0496531152848842
 40
0.0496531152848842
 40
0.0496531152848842
 40
0.0496531152848842
 10
179.5644786793537
 20
271.5582089595803
 30
0.0
 10
179.566456180255
 20
271.5510554488772
 30
0.0
 10
179.5710336159264
 20
271.5344968746018
 30
0.0
 10
179.5863109471761
 20
271.526131801992
 30
0.0
 10
179.5949882920648
 20
271.5213805505475
 30
0.0
 11
179.5644786793537
 21
271.5582089595803
 31
0.0
 11
179.5724081593855
 21
271.5382776197978
 31
0.0
 11
179.5949882920648
 21
271.5213805505475
 31
0.0
  0
SPLINE
  5
2D4
330
1F
100
AcDbEntity
  8
0
  6
Continuous
 62
     7
100
AcDbSpline
210
0.0
220
0.0
230
1.0
 70
     8
 71
     3
 72
     9
 73
     5
 74
     3
 42
0.000000001
 43
0.0000000001
 44
0.00000001
 40
0.0
 40
0.0
 40
0.0
 40
0.0
 40
0.021450753894767
 40
0.0496531152846008
 40
0.0496531152846008
 40
0.0496531152846008
 40
0.0496531152846008
 10
179.439751567228
 20
271.3259433574822
 30
0.0
 10
179.4417290681293
 20
271.3187898467791
 30
0.0
 10
179.4463065038007
 20
271.3022312725038
 30
0.0
 10
179.4615838350504
 20
271.2938661998942
 30
0.0
 10
179.4702611799391
 20
271.2891149484497
 30
0.0
 11
179.439751567228
 21
271.3259433574822
 31
0.0
 11
179.4476810472598
 21
271.3060120176998
 31
0.0
 11
179.4702611799391
 21
271.2891149484497
 31
0.0
  0
SPLINE
  5
2D5
330
1F
100
AcDbEntity
  8
0
  6
Continuous
 62
     7
100
AcDbSpline
210
0.0
220
0.0
230
1.0
 70
     8
 71
     3
 72
    19
 73
    15
 74
    13
 42
0.000000001
 43
0.0000000001
 44
0.00000001
 40
0.0
 40
0.0
 40
0.0
 40
0.0
 40
0.0124065581283939
 40
0.0308361651809934
 40
0.050422838191582
 40
0.0652754860253608
 40
0.0908901462683416
 40
0.1159206075525985
 40
0.1341396275492201
 40
0.1596767335671832
 40
0.1702930085217228
 40
0.1830079484955637
 40
0.1895922830576103
 40
0.1975750539464829
 40
0.1975750539464829
 40
0.1975750539464829
 40
0.1975750539464829
 10
179.6175757590195
 20
271.3584421109707
 30
0.0
 10
179.6138103053988
 20
271.3601606778363
 30
0.0
 10
179.6044513679393
 20
271.3644321193017
 30
0.0
 10
179.5882288249573
 20
271.3690819122202
 30
0.0
 10
179.5708591886275
 20
271.3721882317392
 30
0.0
 10
179.5508970763458
 20
271.3739149100792
 30
0.0
 10
179.5290121011626
 20
271.373683048171
 30
0.0
 10
179.5061880217067
 20
271.370613392256
 30
0.0
 10
179.4839845354726
 20
271.3648041517089
 30
0.0
 10
179.4671585696277
 20
271.3575654889183
 30
0.0
 10
179.4537726771365
 20
271.348201363682
 30
0.0
 10
179.4467564028571
 20
271.3409697556467
 30
0.0
 10
179.4419566487763
 20
271.3331623902994
 30
0.0
 10
179.4405321732216
 20
271.3284989336441
 30
0.0
 10
179.439751567228
 20
271.3259433574822
 30
0.0
 11
179.6175757590195
 21
271.3584421109707
 31
0.0
 11
179.6061884330304
 21
271.3633666704191
 31
0.0
 11
179.5885402413121
 21
271.3686762568362
 31
0.0
 11
179.5692608602384
 21
271.3721321555531
 31
0.0
 11
179.5544649755993
 21
271.3734294392352
 31
0.0
 11
179.5288518469017
 21
271.3731493574424
 31
0.0
 11
179.5040557537411
 21
271.3697320871561
 31
0.0
 11
179.4864478577338
 21
271.3650529128477
 31
0.0
 11
179.4631822953841
 21
271.3545240316381
 31
0.0
 11
179.4545377874962
 21
271.3483614219762
 31
0.0
 11
179.4458094984846
 21
271.3391155255063
 31
0.0
 11
179.4424352399345
 21
271.3334615133235
 31
0.0
 11
179.439751567228
 21
271.3259433574822
 31
0.0
  0
SPLINE
  5
2D6
330
1F
100
AcDbEntity
  8
0
  6
Continuous
 62
     7
100
AcDbSpline
210
0.0
220
0.0
230
1.0
 70
     8
 71
     3
 72
    20
 73
    16
 74
    14
 42
0.000000001
 43
0.0000000001
 44
0.00000001
 40
0.0
 40
0.0
 40
0.0
 40
0.0
 40
0.0124065583182163
 40
0.0308361653211243
 40
0.0477121488056524
 40
0.0652765028902239
 40
0.0875080359084272
 40
0.1047743286064342
 40
0.1159381815343402
 40
0.1391666740121433
 40
0.1597061322626266
 40
0.1738790788334723
 40
0.1830416243771466
 40
0.1942018611360037
 40
0.2017899850209785
 40
0.2017899850209785
 40
0.2017899850209785
 40
0.2017899850209785
 10
179.6175757590195
 20
271.3627722379898
 30
0.0
 10
179.6138103854838
 20
271.3644908602619
 30
0.0
 10
179.6044516474712
 20
271.3687624401822
 30
0.0
 10
179.5890992241451
 20
271.3731608868129
 30
0.0
 10
179.5717624832419
 20
271.3763986252799
 30
0.0
 10
179.5529259393627
 20
271.3781502315259
 30
0.0
 10
179.5338695277467
 20
271.3781001459286
 30
0.0
 10
179.5170403972551
 20
271.3764472592533
 30
0.0
 10
179.500071261701
 20
271.373485482627
 30
0.0
 10
179.4823516050395
 20
271.3685931880616
 30
0.0
 10
179.4647226796849
 20
271.3604517016016
 30
0.0
 10
179.4528054194982
 20
271.3517488907889
 30
0.0
 10
179.4451249099252
 20
271.343167154485
 30
0.0
 10
179.4405306763361
 20
271.3347473736585
 30
0.0
 10
179.4399760435922
 20
271.3284799899613
 30
0.0
 10
179.439751567228
 20
271.3259433574822
 30
0.0
 11
179.6175757590195
 21
271.3627722379898
 31
0.0
 11
179.6061884330305
 21
271.3676967974384
 31
0.0
 11
179.5885402413121
 21
271.3730063838553
 31
0.0
 11
179.5719512864763
 21
271.3761056418062
 31
0.0
 11
179.5544649755993
 21
271.3777595662544
 31
0.0
 11
179.5322335265385
 21
271.3776985147827
 31
0.0
 11
179.5150520641335
 21
271.3759890682872
 31
0.0
 11
179.5040557537411
 21
271.3740622141752
 31
0.0
 11
179.4817100253178
 21
271.3677194021351
 31
0.0
 11
179.4631822953841
 21
271.3588541586573
 31
0.0
 11
179.4518660258684
 21
271.3503210212627
 31
0.0
 11
179.4458094984846
 21
271.3434456525255
 31
0.0
 11
179.4408396740353
 21
271.3334530708362
 31
0.0
 11
179.439751567228
 21
271.3259433574822
 31
0.0
  0
SPLINE
  5
2D7
330
1F
100
AcDbEntity
  8
0
  6
Continuous
 62
     7
100
AcDbSpline
210
0.0
220
0.0
230
1.0
 70
     8
 71
     3
 72
     9
 73
     5
 74
     3
 42
0.000000001
 43
0.0000000001
 44
0.00000001
 40
0.0
 40
0.0
 40
0.0
 40
0.0
 40
0.0214508847146679
 40
0.0496534500283135
 40
0.0496534500283135
 40
0.0496534500283135
 40
0.0496534500283135
 10
179.6892060731619
 20
271.7904750489831
 30
0.0
 10
179.6911835920793
 20
271.7833214969008
 30
0.0
 10
179.6957610723968
 20
271.7667628161956
 30
0.0
 10
179.7110385085829
 20
271.7583976921772
 30
0.0
 10
179.7197159173181
 20
271.7536464092094
 30
0.0
 11
179.6892060731619
 21
271.7904750489831
 31
0.0
 11
179.697135615926
 21
271.7705435933655
 31
0.0
 11
179.7197159173181
 21
271.7536464092094
 31
0.0
  0
SPLINE
  5
2D8
330
1F
100
AcDbEntity
  8
0
  6
Continuous
 62
     7
100
AcDbSpline
210
0.0
220
0.0
230
1.0
 70
     8
 71
     3
 72
    19
 73
    15
 74
    13
 42
0.000000001
 43
0.0000000001
 44
0.00000001
 40
0.0
 40
0.0
 40
0.0
 40
0.0
 40
0.0148694164683346
 40
0.0308367342748544
 40
0.0504234072510501
 40
0.0652760550303653
 40
0.0908907152072041
 40
0.1159211764448717
 40
0.1441956904029265
 40
0.1596849843062947
 40
0.1703012592510203
 40
0.1830161991939953
 40
0.1896005815497006
 40
0.1975833045835229
 40
0.1975833045835229
 40
0.1975833045835229
 40
0.1975833045835229
 10
179.7423028711453
 20
271.5907077130686
 30
0.0
 10
179.7377762405615
 20
271.5927413913699
 30
0.0
 10
179.7283887466132
 20
271.5969588981805
 30
0.0
 10
179.712148143227
 20
271.6014896381071
 30
0.0
 10
179.6955858129164
 20
271.6044544125474
 30
0.0
 10
179.6756251935107
 20
271.6061801111348
 30
0.0
 10
179.6537329834666
 20
271.6059498863121
 30
0.0
 10
179.6276057737037
 20
271.6024263542004
 30
0.0
 10
179.605434148853
 20
271.5959981737119
 30
0.0
 10
179.5891321841383
 20
271.5879097448385
 30
0.0
 10
179.5785001322008
 20
271.5804658432728
 30
0.0
 10
179.5714834563572
 20
271.5732355002422
 30
0.0
 10
179.5666837652741
 20
271.5654279421934
 30
0.0
 10
179.5652592839131
 20
271.5607645080631
 30
0.0
 10
179.5644786793537
 20
271.5582089595803
 30
0.0
 11
179.7423028711453
 21
271.5907077130686
 31
0.0
 11
179.7285963712707
 21
271.5964723601174
 31
0.0
 11
179.7132673534379
 21
271.6009418589342
 31
0.0
 11
179.6939879723631
 21
271.6043977576513
 31
0.0
 11
179.6791920877251
 21
271.6056950413333
 31
0.0
 11
179.6535789590258
 21
271.6054149595403
 31
0.0
 11
179.6287828658669
 21
271.6019976892541
 31
0.0
 11
179.601724833642
 21
271.5937933615996
 31
0.0
 11
179.5879094075098
 21
271.586789633736
 31
0.0
 11
179.5792648996203
 21
271.5806270240728
 31
0.0
 11
179.5705366106103
 21
271.5713811276042
 31
0.0
 11
179.5671623317623
 21
271.5657270718927
 31
0.0
 11
179.5644786793537
 21
271.5582089595803
 31
0.0
  0
SPLINE
  5
2D9
330
1F
100
AcDbEntity
  8
0
  6
Continuous
 62
     7
100
AcDbSpline
210
0.0
220
0.0
230
1.0
 70
     8
 71
     3
 72
    19
 73
    15
 74
    13
 42
0.000000001
 43
0.0000000001
 44
0.00000001
 40
0.0
 40
0.0
 40
0.0
 40
0.0
 40
0.0148694166110784
 40
0.030836734328547
 40
0.0504234074779591
 40
0.0652760552787011
 40
0.0968105598710889
 40
0.1159164987477056
 40
0.1341355186221972
 40
0.1596726243706451
 40
0.1738455709936097
 40
0.1830081166824636
 40
0.1927052902223947
 40
0.2017592770605457
 40
0.2017592770605457
 40
0.2017592770605457
 40
0.2017592770605457
 10
179.7423028711453
 20
271.5950378400879
 30
0.0
 10
179.7377762341034
 20
271.5970715220227
 30
0.0
 10
179.7283887270822
 20
271.6012890370305
 30
0.0
 10
179.712148236581
 20
271.605819710945
 30
0.0
 10
179.695585417417
 20
271.6087847611279
 30
0.0
 10
179.6736591440076
 20
271.6106794600483
 30
0.0
 10
179.6517377321403
 20
271.6101475262505
 30
0.0
 10
179.6290050644149
 20
271.6067108135779
 30
0.0
 10
179.6087060632032
 20
271.6013961977988
 30
0.0
 10
179.5908078330438
 20
271.5937017920384
 30
0.0
 10
179.5775311930068
 20
271.5840183554372
 30
0.0
 10
179.5701810289271
 20
271.5757887901784
 30
0.0
 10
179.56545362641
 20
271.5675130789136
 30
0.0
 10
179.5647961417042
 20
271.5612385928354
 30
0.0
 10
179.5644786793537
 20
271.5582089595803
 30
0.0
 11
179.7423028711453
 21
271.5950378400879
 31
0.0
 11
179.7285963712708
 21
271.6008024871367
 31
0.0
 11
179.7132673534379
 21
271.6052719859533
 31
0.0
 11
179.693987972363
 21
271.6087278846704
 31
0.0
 11
179.6791920877251
 21
271.6100251683524
 31
0.0
 11
179.6476677112927
 21
271.6092260062977
 31
0.0
 11
179.6287828658669
 21
271.6063278162733
 31
0.0
 11
179.6111749698599
 21
271.601648641965
 31
0.0
 11
179.5879094075098
 21
271.5911197607551
 31
0.0
 11
179.5765931379915
 21
271.5825866233582
 31
0.0
 11
179.5705366106103
 21
271.5757112546235
 31
0.0
 11
179.5660181682872
 21
271.5671311133271
 31
0.0
 11
179.5644786793537
 21
271.5582089595803
 31
0.0
  0
SPLINE
  5
2DA
330
1F
100
AcDbEntity
  8
0
  6
Continuous
 62
     7
100
AcDbSpline
210
0.0
220
0.0
230
1.0
 70
     8
 71
     3
 72
     9
 73
     5
 74
     3
 42
0.000000001
 43
0.0000000001
 44
0.00000001
 40
0.0
 40
0.0
 40
0.0
 40
0.0
 40
0.0764414097622333
 40
0.1267792616625185
 40
0.1267792616625185
 40
0.1267792616625185
 40
0.1267792616625185
 10
179.8006982148255
 20
271.8380991869257
 30
0.0
 10
179.7734908748901
 20
271.8380208358441
 30
0.0
 10
179.7283670874351
 20
271.8378908717362
 30
0.0
 10
179.7003358882308
 20
271.8039509428786
 30
0.0
 10
179.6892060731619
 20
271.7904750489831
 30
0.0
 11
179.8006982148255
 21
271.8380991869257
 31
0.0
 11
179.7252901635917
 21
271.825572599505
 31
0.0
 11
179.6892060731619
 21
271.7904750489831
 31
0.0
  0
SPLINE
  5
2DB
330
1F
100
AcDbEntity
  8
0
  6
Continuous
 62
     7
100
AcDbSpline
210
0.0
220
0.0
230
1.0
 70
     8
 71
     3
 72
     9
 73
     5
 74
     3
 42
0.000000001
 43
0.0000000001
 44
0.00000001
 40
0.0
 40
0.0
 40
0.0
 40
0.0
 40
0.0795445040374777
 40
0.1300509622794658
 40
0.1300509622794658
 40
0.1300509622794658
 40
0.1300509622794658
 10
179.800698265855
 20
271.8424296758826
 30
0.0
 10
179.7719291279651
 20
271.8425111772222
 30
0.0
 10
179.7248931510735
 20
271.8426444105052
 30
0.0
 10
179.69918864399
 20
271.8050681373473
 30
0.0
 10
179.6892060731619
 20
271.7904750489831
 30
0.0
 11
179.800698265855
 21
271.8424296758826
 31
0.0
 11
179.7223710607589
 21
271.8285668625177
 31
0.0
 11
179.6892060731619
 21
271.7904750489831
 31
0.0
  0
SPLINE
  5
2DC
330
1F
100
AcDbEntity
  8
0
  6
Continuous
 62
     7
100
AcDbSpline
210
0.0
220
0.0
230
1.0
 70
     8
 71
     3
 72
    19
 73
    15
 74
    13
 42
0.000000001
 43
0.0000000001
 44
0.00000001
 40
0.0
 40
0.0
 40
0.0
 40
0.0
 40
0.0124065583025205
 40
0.0308361653142043
 40
0.050422838465917
 40
0.0652754862989641
 40
0.0908901464756803
 40
0.1159206076528533
 40
0.1391491001469779
 40
0.1596885584272222
 40
0.172120941192999
 40
0.1830245903703248
 40
0.1927217639012495
 40
0.2017757507591737
 40
0.2017757507591737
 40
0.2017757507591737
 40
0.2017757507591737
 10
180.0475353320796
 20
271.0004778723794
 30
0.0
 10
180.0513007872735
 20
270.9987593053556
 30
0.0
 10
180.0606597282717
 20
270.9944878627929
 30
0.0
 10
180.0768822321838
 20
270.9898380756954
 30
0.0
 10
180.0942520258496
 20
270.9867317418374
 30
0.0
 10
180.1142135785906
 20
270.9850051129447
 30
0.0
 10
180.1361019856924
 20
270.985236672313
 30
0.0
 10
180.1605730027748
 20
270.9885308076801
 30
0.0
 10
180.1827557063299
 20
270.9946549148845
 30
0.0
 10
180.1998659085485
 20
271.0025589580641
 30
0.0
 10
180.211833960895
 20
271.0111190978751
 30
0.0
 10
180.2193658366735
 20
271.019212122916
 30
0.0
 10
180.2243838021846
 20
271.0280023278516
 30
0.0
 10
180.225041809301
 20
271.0342770200853
 30
0.0
 10
180.2253595238711
 20
271.0373067528868
 30
0.0
 11
180.0475353320796
 21
271.0004778723794
 31
0.0
 11
180.0589226580678
 21
270.9955533129311
 31
0.0
 11
180.0765708497871
 21
270.9902437265138
 31
0.0
 11
180.0958502308601
 21
270.9867878277969
 31
0.0
 11
180.1106461154998
 21
270.9854905441147
 31
0.0
 11
180.1362592441996
 21
270.9857706259077
 31
0.0
 11
180.161055337358
 21
270.9891878961938
 31
0.0
 11
180.1834010657807
 21
270.9955307082338
 31
0.0
 11
180.2019287957151
 21
271.004395951712
 31
0.0
 11
180.211954458916
 21
271.0117478357553
 31
0.0
 11
180.2193015926146
 21
271.0198044578436
 31
0.0
 11
180.2238200349367
 21
271.0283845991371
 31
0.0
 11
180.2253595238711
 21
271.0373067528868
 31
0.0
  0
SPLINE
  5
2DD
330
1F
100
AcDbEntity
  8
0
  6
Continuous
 62
     7
100
AcDbSpline
210
0.0
220
0.0
230
1.0
 70
     8
 71
     3
 72
    11
 73
     7
 74
     5
 42
0.000000001
 43
0.0000000001
 44
0.00000001
 40
0.0
 40
0.0
 40
0.0
 40
0.0
 40
0.1710252651246219
 40
0.3633104721066605
 40
0.5555956790887556
 40
0.7266209442133775
 40
0.7266209442133775
 40
0.7266209442133775
 40
0.7266209442133775
 10
165.5490025635808
 20
277.0152579989734
 30
0.0
 10
165.6024477538388
 20
276.994589492717
 30
0.0
 10
165.7159818453787
 20
276.9506832181413
 30
0.0
 10
165.9025559541741
 20
276.9374574035658
 30
0.0
 10
166.0891300629693
 20
276.9506832181413
 30
0.0
 10
166.2026641545094
 20
276.994589492717
 30
0.0
 10
166.2561093447673
 20
277.0152579989734
 30
0.0
 11
165.5490025635808
 21
277.0152579989734
 31
0.0
 11
165.711214819765
 21
276.9610655134049
 31
0.0
 11
165.902555954174
 21
276.94203469427
 31
0.0
 11
166.0938970885831
 21
276.9610655134049
 31
0.0
 11
166.2561093447673
 21
277.0152579989734
 31
0.0
  0
SPLINE
  5
2DE
330
1F
100
AcDbEntity
  8
0
  6
Continuous
 62
     7
100
AcDbSpline
210
0.0
220
0.0
230
1.0
 70
     8
 71
     3
 72
     9
 73
     5
 74
     3
 42
0.000000001
 43
0.0000000001
 44
0.00000001
 40
0.0
 40
0.0
 40
0.0
 40
0.0
 40
0.1029638051846892
 40
0.2383355350531261
 40
0.2383355350531261
 40
0.2383355350531261
 40
0.2383355350531261
 10
170.0795112163441
 20
279.0305123253551
 30
0.0
 10
170.070019166237
 20
278.9961754225759
 30
0.0
 10
170.0480474200202
 20
278.916694063381
 30
0.0
 10
169.9747159892924
 20
278.8765416899784
 30
0.0
 10
169.9330646069374
 20
278.8537356300585
 30
0.0
 11
170.0795112163441
 21
279.0305123253551
 31
0.0
 11
170.0414495780743
 21
278.9348417581505
 31
0.0
 11
169.9330646069374
 21
278.8537356300585
 31
0.0
  0
SPLINE
  5
2DF
330
1F
100
AcDbEntity
  8
0
  6
Continuous
 62
     7
100
AcDbSpline
210
0.0
220
0.0
230
1.0
 70
     8
 71
     3
 72
     9
 73
     5
 74
     3
 42
0.000000001
 43
0.0000000001
 44
0.00000001
 40
0.0
 40
0.0
 40
0.0
 40
0.0
 40
0.1029638051846364
 40
0.2383355350531414
 40
0.2383355350531414
 40
0.2383355350531414
 40
0.2383355350531414
 10
170.0795112163441
 20
280.7625631329237
 30
0.0
 10
170.0700191662369
 20
280.7282262301444
 30
0.0
 10
170.0480474200202
 20
280.6487448709495
 30
0.0
 10
169.9747159892924
 20
280.6085924975469
 30
0.0
 10
169.9330646069374
 20
280.585786437627
 30
0.0
 11
170.0795112163441
 21
280.7625631329237
 31
0.0
 11
170.0414495780743
 21
280.6668925657191
 31
0.0
 11
169.9330646069374
 21
280.585786437627
 31
0.0
  0
SPLINE
  5
2E0
330
1F
100
AcDbEntity
  8
0
  6
Continuous
 62
     7
100
AcDbSpline
210
0.0
220
0.0
230
1.0
 70
     8
 71
     3
 72
     9
 73
     5
 74
     3
 42
0.000000001
 43
0.0000000001
 44
0.00000001
 40
0.0
 40
0.0
 40
0.0
 40
0.0
 40
0.135371729868505
 40
0.2383355350530358
 40
0.2383355350530358
 40
0.2383355350530358
 40
0.2383355350530358
 10
169.9330646069374
 20
280.9393398282202
 30
0.0
 10
169.9747159892924
 20
280.9165337683003
 30
0.0
 10
170.0480474200201
 20
280.8763813948977
 30
0.0
 10
170.0700191662369
 20
280.7969000357028
 30
0.0
 10
170.0795112163441
 20
280.7625631329237
 30
0.0
 11
169.9330646069374
 21
280.9393398282202
 31
0.0
 11
170.0414495780743
 21
280.8582337001281
 31
0.0
 11
170.0795112163441
 21
280.7625631329237
 31
0.0
  0
SPLINE
  5
2E1
330
1F
100
AcDbEntity
  8
0
  6
Continuous
 62
     7
100
AcDbSpline
210
0.0
220
0.0
230
1.0
 70
     8
 71
     3
 72
     9
 73
     5
 74
     3
 42
0.000000001
 43
0.0000000001
 44
0.00000001
 40
0.0
 40
0.0
 40
0.0
 40
0.0
 40
0.7411484605611883
 40
1.381992291007116
 40
1.381992291007116
 40
1.381992291007116
 40
1.381992291007116
 10
149.4747388059982
 20
278.0754428190124
 30
0.0
 10
149.2387743681406
 20
278.1746364983342
 30
0.0
 10
148.7987801517289
 20
278.3595992870775
 30
0.0
 10
148.3439891944469
 20
278.2236768165534
 30
0.0
 10
148.1330980194983
 20
278.1606481806589
 30
0.0
 11
149.4747388059982
 21
278.0754428190124
 31
0.0
 11
148.7625898462846
 21
278.2807350575811
 31
0.0
 11
148.1330980194983
 21
278.1606481806589
 31
0.0
  0
SPLINE
  5
2E2
330
1F
100
AcDbEntity
  8
0
  6
Continuous
 62
     7
100
AcDbSpline
210
0.0
220
0.0
230
1.0
 70
     8
 71
     3
 72
     9
 73
     5
 74
     3
 42
0.000000001
 43
0.0000000001
 44
0.00000001
 40
0.0
 40
0.0
 40
0.0
 40
0.0
 40
0.7411484605612115
 40
1.381992291007133
 40
1.381992291007133
 40
1.381992291007133
 40
1.381992291007133
 10
148.802987363871
 20
277.7395670979489
 30
0.0
 10
148.5670229260133
 20
277.8387607772706
 30
0.0
 10
148.1270287096017
 20
278.0237235660139
 30
0.0
 10
147.6722377523197
 20
277.8878010954898
 30
0.0
 10
147.4613465773711
 20
277.8247724595952
 30
0.0
 11
148.802987363871
 21
277.7395670979489
 31
0.0
 11
148.0908384041574
 21
277.9448593365175
 31
0.0
 11
147.4613465773711
 21
277.8247724595952
 31
0.0
  0
SPLINE
  5
2E3
330
1F
100
AcDbEntity
  8
0
  6
Continuous
 62
     7
100
AcDbSpline
210
0.0
220
0.0
230
1.0
 70
     8
 71
     3
 72
     9
 73
     5
 74
     3
 42
0.000000001
 43
0.0000000001
 44
0.00000001
 40
0.0
 40
0.0
 40
0.0
 40
0.0
 40
0.8391214668310591
 40
1.87099736802028
 40
1.87099736802028
 40
1.87099736802028
 40
1.87099736802028
 10
147.4613465773711
 20
277.8247724595952
 30
0.0
 10
147.2392064161608
 20
277.6367963341739
 30
0.0
 10
146.7438983342604
 20
277.2176641114736
 30
0.0
 10
146.7037881978885
 20
276.5631325262482
 30
0.0
 10
146.6816670203114
 20
276.2021510583754
 30
0.0
 11
147.4613465773711
 21
277.8247724595952
 31
0.0
 11
146.8864856387255
 21
277.2134953195737
 31
0.0
 11
146.6816670203114
 21
276.2021510583754
 31
0.0
  0
SPLINE
  5
2E4
330
1F
100
AcDbEntity
  8
0
  6
Continuous
 62
     7
100
AcDbSpline
210
0.0
220
0.0
230
1.0
 70
     8
 71
     3
 72
    11
 73
     7
 74
     5
 42
0.000000001
 43
0.0000000001
 44
0.00000001
 40
0.0
 40
0.0
 40
0.0
 40
0.0
 40
1.011643760547402
 40
2.150416780855483
 40
3.317613767856657
 40
4.404653526265728
 40
4.404653526265728
 40
4.404653526265728
 40
4.404653526265728
 10
148.8029873638708
 20
263.9697631777764
 30
0.0
 10
148.5188033707019
 20
264.1562800728244
 30
0.0
 10
147.9147231181726
 20
264.5527527136321
 30
0.0
 10
147.2669007604488
 20
265.4719754482471
 30
0.0
 10
146.7885949037076
 20
266.5123771167895
 30
0.0
 10
146.7164545765499
 20
267.2653840051154
 30
0.0
 10
146.6816670203112
 20
267.6284995609095
 30
0.0
 11
148.8029873638708
 21
263.9697631777764
 31
0.0
 11
147.9911956819075
 21
264.5734330926662
 31
0.0
 11
147.3029873638708
 21
265.4807220820423
 31
0.0
 11
146.8431488754534
 21
266.5535209342156
 31
0.0
 11
146.6816670203112
 21
267.6284995609095
 31
0.0
  0
SPLINE
  5
2E5
330
1F
100
AcDbEntity
  8
0
  6
Continuous
 62
     7
100
AcDbSpline
210
0.0
220
0.0
230
1.0
 70
     8
 71
     3
 72
    11
 73
     7
 74
     5
 42
0.000000001
 43
0.0000000001
 44
0.00000001
 40
0.0
 40
0.0
 40
0.0
 40
0.0
 40
0.1710252651246489
 40
0.363310472106713
 40
0.5555956790888052
 40
0.7266209442134272
 40
0.7266209442134272
 40
0.7266209442134272
 40
0.7266209442134272
 10
165.5490025635805
 20
248.948891687278
 30
0.0
 10
165.4955573733226
 20
248.9282231810215
 30
0.0
 10
165.3820232817826
 20
248.8843169064457
 30
0.0
 10
165.1954491729873
 20
248.8710910918703
 30
0.0
 10
165.008875064192
 20
248.8843169064458
 30
0.0
 10
164.8953409726519
 20
248.9282231810214
 30
0.0
 10
164.841895782394
 20
248.948891687278
 30
0.0
 11
165.5490025635805
 21
248.948891687278
 31
0.0
 11
165.3867903073963
 21
248.8946992017095
 31
0.0
 11
165.1954491729873
 21
248.8756683825745
 31
0.0
 11
165.0041080385782
 21
248.8946992017095
 31
0.0
 11
164.841895782394
 21
248.948891687278
 31
0.0
  0
DIMENSION
  5
2F1
330
1F
100
AcDbEntity
  8
1
100
AcDbDimension
  2
*D3
 10
169.4176090852089
 20
135.9624355689425
 30
0.0
 11
165.7676090852089
 21
163.8124355689423
 31
0.0
 70
    32
  1
<>
 71
     5
 42
-1.0
 53
90.0
  3
ME10_DIM_10
100
AcDbAlignedDimension
 13
142.3676090852088
 23
191.6624355689422
 33
0.0
 14
152.4176090852095
 24
135.9624355689425
 34
0.0
 50
90.0
100
AcDbRotatedDimension
  0
DIMENSION
  5
2FC
330
1F
100
AcDbEntity
  8
1
100
AcDbDimension
  2
*D4
 10
122.4176090852089
 20
201.6624355689422
 30
0.0
 11
137.4176090852091
 21
205.1624355689422
 31
0.0
 70
    32
  1
<>
 71
     5
 42
-1.0
 53
0.00013888888889
  3
ME10_DIM_11
100
AcDbAlignedDimension
 13
152.4176090852093
 23
170.1624355689423
 33
0.0
 14
122.4176090852088
 24
170.1624355689422
 34
0.0
100
AcDbRotatedDimension
  0
DIMENSION
  5
307
330
1F
100
AcDbEntity
  8
1
100
AcDbDimension
  2
*D5
 10
69.41760925223544
 20
201.6624355689422
 30
0.0
 11
76.76760925223543
 21
205.3124355689422
 31
0.0
 70
    32
  1
<>
 71
     5
 42
-1.0
 53
0.00013888888889
  3
ME10_DIM_12
100
AcDbAlignedDimension
 13
84.11760925223543
 23
170.1624355689423
 33
0.0
 14
69.41760925223544
 24
170.1624355689423
 34
0.0
100
AcDbRotatedDimension
  0
ENDSEC
  0
SECTION
  2
OBJECTS
  0
DICTIONARY
  5
C
330
0
100
AcDbDictionary
281
     1
  3
ACAD_GROUP
350
D
  3
ACAD_LAYOUT
350
1A
  3
ACAD_MATERIAL
350
3B
  3
ACAD_MLEADERSTYLE
350
30A
  3
ACAD_MLINESTYLE
350
17
  3
ACAD_PLOTSETTINGS
350
19
  3
ACAD_PLOTSTYLENAME
350
E
  3
ACAD_VISUALSTYLE
350
2A
  3
AcDbVariableDictionary
350
308
  0
DICTIONARY
  5
D
102
{ACAD_REACTORS
330
C
102
}
330
C
100
AcDbDictionary
281
     1
  0
DICTIONARY
  5
1A
102
{ACAD_REACTORS
330
C
102
}
330
C
100
AcDbDictionary
281
     1
  3
Layout1
350
1E
  3
Layout2
350
26
  3
Model
350
22
  0
DICTIONARY
  5
3B
102
{ACAD_REACTORS
330
C
102
}
330
C
100
AcDbDictionary
281
     1
  3
ByBlock
350
3D
  3
ByLayer
350
3C
  3
Global
350
3E
  0
DICTIONARY
  5
30A
102
{ACAD_REACTORS
330
C
102
}
330
C
100
AcDbDictionary
281
     1
  0
DICTIONARY
  5
17
102
{ACAD_REACTORS
330
C
102
}
330
C
100
AcDbDictionary
281
     1
  3
Standard
350
18
  0
DICTIONARY
  5
19
102
{ACAD_REACTORS
330
C
102
}
330
C
100
AcDbDictionary
281
     1
  0
ACDBDICTIONARYWDFLT
  5
E
102
{ACAD_REACTORS
330
C
102
}
330
C
100
AcDbDictionary
281
     1
  3
Normal
350
F
100
AcDbDictionaryWithDefault
340
F
  0
DICTIONARY
  5
2A
102
{ACAD_REACTORS
330
C
102
}
330
C
100
AcDbDictionary
281
     1
  3
2dWireframe
350
2F
  3
3D Hidden
350
31
  3
3dWireframe
350
30
  3
Basic
350
32
  3
Brighten
350
36
  3
ColorChange
350
3A
  3
Conceptual
350
34
  3
Dim
350
35
  3
Facepattern
350
39
  3
Flat
350
2B
  3
FlatWithEdges
350
2C
  3
Gouraud
350
2D
  3
GouraudWithEdges
350
2E
  3
Linepattern
350
38
  3
Realistic
350
33
  3
Thicken
350
37
  0
DICTIONARY
  5
308
102
{ACAD_REACTORS
330
C
102
}
330
C
100
AcDbDictionary
281
     1
  3
DIMASSOC
350
30B
  3
HIDETEXT
350
30C
  0
LAYOUT
  5
1E
102
{ACAD_REACTORS
330
1A
102
}
330
1A
100
AcDbPlotSettings
  1

  2
none_device
  4

  6

 40
0.0
 41
0.0
 42
0.0
 43
0.0
 44
0.0
 45
0.0
 46
0.0
 47
0.0
 48
0.0
 49
0.0
140
0.0
141
0.0
142
1.0
143
1.0
 70
   688
 72
     0
 73
     0
 74
     5
  7

 75
    16
147
1.0
148
0.0
149
0.0
100
AcDbLayout
  1
Layout1
 70
     1
 71
     1
 10
0.0
 20
0.0
 11
12.0
 21
9.0
 12
0.0
 22
0.0
 32
0.0
 14
1.00000000000000E+20
 24
1.00000000000000E+20
 34
1.00000000000000E+20
 15
-1.00000000000000E+20
 25
-1.00000000000000E+20
 35
-1.00000000000000E+20
146
0.0
 13
0.0
 23
0.0
 33
0.0
 16
1.0
 26
0.0
 36
0.0
 17
0.0
 27
1.0
 37
0.0
 76
     0
330
1B
  0
LAYOUT
  5
26
102
{ACAD_REACTORS
330
1A
102
}
330
1A
100
AcDbPlotSettings
  1

  2
none_device
  4

  6

 40
0.0
 41
0.0
 42
0.0
 43
0.0
 44
0.0
 45
0.0
 46
0.0
 47
0.0
 48
0.0
 49
0.0
140
0.0
141
0.0
142
1.0
143
1.0
 70
   688
 72
     0
 73
     0
 74
     5
  7

 75
    16
147
1.0
148
0.0
149
0.0
100
AcDbLayout
  1
Layout2
 70
     1
 71
     2
 10
0.0
 20
0.0
 11
0.0
 21
0.0
 12
0.0
 22
0.0
 32
0.0
 14
0.0
 24
0.0
 34
0.0
 15
0.0
 25
0.0
 35
0.0
146
0.0
 13
0.0
 23
0.0
 33
0.0
 16
1.0
 26
0.0
 36
0.0
 17
0.0
 27
1.0
 37
0.0
 76
     0
330
23
  0
LAYOUT
  5
22
102
{ACAD_REACTORS
330
1A
102
}
330
1A
100
AcDbPlotSettings
  1

  2
none_device
  4

  6

 40
0.0
 41
0.0
 42
0.0
 43
0.0
 44
0.0
 45
0.0
 46
0.0
 47
0.0
 48
0.0
 49
0.0
140
0.0
141
0.0
142
1.0
143
1.0
 70
  1712
 72
     0
 73
     0
 74
     0
  7

 75
     0
147
1.0
148
0.0
149
0.0
100
AcDbLayout
  1
Model
 70
     1
 71
     0
 10
0.0
 20
0.0
 11
12.0
 21
9.0
 12
0.0
 22
0.0
 32
0.0
 14
0.0
 24
0.0
 34
0.0
 15
210.0000000000001
 25
297.0000000000001
 35
0.0
146
0.0
 13
0.0
 23
0.0
 33
0.0
 16
1.0
 26
0.0
 36
0.0
 17
0.0
 27
1.0
 37
0.0
 76
     0
330
1F
331
29
  0
MATERIAL
  5
3D
102
{ACAD_REACTORS
330
3B
102
}
102
{ACAD_XDICTIONARY
360
32F
102
}
330
3B
100
AcDbMaterial
  1
ByBlock
  0
MATERIAL
  5
3C
102
{ACAD_REACTORS
330
3B
102
}
102
{ACAD_XDICTIONARY
360
32D
102
}
330
3B
100
AcDbMaterial
  1
ByLayer
  0
MATERIAL
  5
3E
102
{ACAD_REACTORS
330
3B
102
}
102
{ACAD_XDICTIONARY
360
331
102
}
330
3B
100
AcDbMaterial
  1
Global
  0
MLINESTYLE
  5
18
102
{ACAD_REACTORS
330
17
102
}
330
17
100
AcDbMlineStyle
  2
Standard
 70
     0
  3

 62
   256
 51
90.0
 52
90.0
 71
     2
 49
0.5
 62
   256
  6
BYLAYER
 49
-0.5
 62
   256
  6
BYLAYER
  0
ACDBPLACEHOLDER
  5
F
102
{ACAD_REACTORS
330
E
102
}
330
E
  0
VISUALSTYLE
  5
2F
102
{ACAD_REACTORS
330
2A
102
}
102
{ACAD_XDICTIONARY
360
315
102
}
330
2A
100
AcDbVisualStyle
  2
2dWireframe
 70
     4
 71
     0
 72
     2
 73
     0
 90
        0
 40
-0.6
 41
-30.0
 62
     5
 63
     7
 74
     1
 91
        4
 64
     7
 65
   257
 75
     1
175
     1
 42
1.0
 92
        0
 66
   257
 43
1.0
 76
     1
 77
     6
 78
     2
 67
     7
 79
     5
170
     0
171
     0
290
     0
174
     0
 93
        1
 44
0.0
173
     0
291
     0
 45
0.0
1001
ACAD
1000
AcDbSavedByObjectVersion
1070
     0
  0
VISUALSTYLE
  5
31
102
{ACAD_REACTORS
330
2A
102
}
102
{ACAD_XDICTIONARY
360
319
102
}
330
2A
100
AcDbVisualStyle
  2
3D Hidden
 70
     6
 71
     1
 72
     2
 73
     2
 90
        0
 40
-0.6
 41
-30.0
 62
     5
 63
     7
 74
     2
 91
        2
 64
     7
 65
   257
 75
     2
175
     1
 42
40.0
 92
        0
 66
   257
 43
1.0
 76
     1
 77
     6
 78
     2
 67
     7
 79
     3
170
     0
171
     0
290
     0
174
     0
 93
        1
 44
0.0
173
     0
291
     0
 45
0.0
1001
ACAD
1000
AcDbSavedByObjectVersion
1070
     0
  0
VISUALSTYLE
  5
30
102
{ACAD_REACTORS
330
2A
102
}
102
{ACAD_XDICTIONARY
360
317
102
}
330
2A
100
AcDbVisualStyle
  2
3dWireframe
 70
     5
 71
     0
 72
     2
 73
     0
 90
        0
 40
-0.6
 41
-30.0
 62
     5
 63
     7
 74
     1
 91
        4
 64
     7
 65
   257
 75
     1
175
     1
 42
1.0
 92
        0
 66
   257
 43
1.0
 76
     1
 77
     6
 78
     2
 67
     7
 79
     5
170
     0
171
     0
290
     0
174
     0
 93
        1
 44
0.0
173
     0
291
     0
 45
0.0
1001
ACAD
1000
AcDbSavedByObjectVersion
1070
     0
  0
VISUALSTYLE
  5
32
102
{ACAD_REACTORS
330
2A
102
}
102
{ACAD_XDICTIONARY
360
31B
102
}
330
2A
100
AcDbVisualStyle
  2
Basic
 70
     7
 71
     1
 72
     0
 73
     1
 90
        0
 40
-0.6
 41
-30.0
 62
     5
 63
     7
 74
     0
 91
        4
 64
     7
 65
   257
 75
     1
175
     1
 42
1.0
 92
        8
 66
     7
 43
1.0
 76
     1
 77
     6
 78
     2
 67
     7
 79
     5
170
     0
171
     0
290
     0
174
     0
 93
        1
 44
0.0
173
     0
291
     1
 45
0.0
1001
ACAD
1000
AcDbSavedByObjectVersion
1070
     0
  0
VISUALSTYLE
  5
36
102
{ACAD_REACTORS
330
2A
102
}
102
{ACAD_XDICTIONARY
360
323
102
}
330
2A
100
AcDbVisualStyle
  2
Brighten
 70
    12
 71
     2
 72
     2
 73
     0
 90
        0
 40
-0.6
 41
-30.0
 62
     5
 63
     7
 74
     1
 91
        4
 64
     7
 65
   257
 75
     1
175
     1
 42
1.0
 92
        8
 66
     7
 43
1.0
 76
     1
 77
     6
 78
     2
 67
     7
 79
     5
170
     0
171
     0
290
     0
174
     0
 93
        1
 44
50.0
173
     0
291
     1
 45
0.0
1001
ACAD
1000
AcDbSavedByObjectVersion
1070
     0
  0
VISUALSTYLE
  5
3A
102
{ACAD_REACTORS
330
2A
102
}
102
{ACAD_XDICTIONARY
360
32B
102
}
330
2A
100
AcDbVisualStyle
  2
ColorChange
 70
    16
 71
     2
 72
     2
 73
     3
 90
        0
 40
-0.6
 41
-30.0
 62
     5
 63
     8
 74
     1
 91
        4
 64
     7
 65
   257
 75
     1
175
     1
 42
1.0
 92
        8
 66
     8
 43
1.0
 76
     1
 77
     6
 78
     2
 67
     7
 79
     5
170
     0
171
     0
290
     0
174
     0
 93
        1
 44
0.0
173
     0
291
     1
 45
0.0
1001
ACAD
1000
AcDbSavedByObjectVersion
1070
     0
  0
VISUALSTYLE
  5
34
102
{ACAD_REACTORS
330
2A
102
}
102
{ACAD_XDICTIONARY
360
31F
102
}
330
2A
100
AcDbVisualStyle
  2
Conceptual
 70
     9
 71
     3
 72
     2
 73
     0
 90
        0
 40
-0.6
 41
-30.0
 62
     5
 63
     7
 74
     2
 91
        2
 64
     7
 65
   257
 75
     1
175
     1
 42
40.0
 92
        8
 66
     7
 43
1.0
 76
     1
 77
     6
 78
     2
 67
     7
 79
     3
170
     0
171
     0
290
     0
174
     0
 93
        1
 44
0.0
173
     0
291
     0
 45
0.0
1001
ACAD
1000
AcDbSavedByObjectVersion
1070
     0
  0
VISUALSTYLE
  5
35
102
{ACAD_REACTORS
330
2A
102
}
102
{ACAD_XDICTIONARY
360
321
102
}
330
2A
100
AcDbVisualStyle
  2
Dim
 70
    11
 71
     2
 72
     2
 73
     0
 90
        0
 40
-0.6
 41
-30.0
 62
     5
 63
     7
 74
     1
 91
        4
 64
     7
 65
   257
 75
     1
175
     1
 42
1.0
 92
        8
 66
     7
 43
1.0
 76
     1
 77
     6
 78
     2
 67
     7
 79
     5
170
     0
171
     0
290
     0
174
     0
 93
        1
 44
-50.0
173
     0
291
     1
 45
0.0
1001
ACAD
1000
AcDbSavedByObjectVersion
1070
     0
  0
VISUALSTYLE
  5
39
102
{ACAD_REACTORS
330
2A
102
}
102
{ACAD_XDICTIONARY
360
329
102
}
330
2A
100
AcDbVisualStyle
  2
Facepattern
 70
    15
 71
     2
 72
     2
 73
     0
 90
        0
 40
-0.6
 41
-30.0
 62
     5
 63
     7
 74
     1
 91
        4
 64
     7
 65
   257
 75
     1
175
     1
 42
1.0
 92
        8
 66
     7
 43
1.0
 76
     1
 77
     6
 78
     2
 67
     7
 79
     5
170
     0
171
     0
290
     0
174
     0
 93
        1
 44
0.0
173
     0
291
     1
 45
0.0
1001
ACAD
1000
AcDbSavedByObjectVersion
1070
     0
  0
VISUALSTYLE
  5
2B
102
{ACAD_REACTORS
330
2A
102
}
102
{ACAD_XDICTIONARY
360
30D
102
}
330
2A
100
AcDbVisualStyle
  2
Flat
 70
     0
 71
     2
 72
     1
 73
     1
 90
        2
 40
-0.6
 41
30.0
 62
     5
 63
     7
 74
     0
 91
        4
 64
     7
 65
   257
 75
     1
175
     1
 42
1.0
 92
        8
 66
     7
 43
1.0
 76
     1
 77
     6
 78
     2
 67
     7
 79
     5
170
     0
171
     0
290
     0
174
     0
 93
       13
 44
0.0
173
     0
291
     1
 45
0.0
1001
ACAD
1000
AcDbSavedByObjectVersion
1070
     0
  0
VISUALSTYLE
  5
2C
102
{ACAD_REACTORS
330
2A
102
}
102
{ACAD_XDICTIONARY
360
30F
102
}
330
2A
100
AcDbVisualStyle
  2
FlatWithEdges
 70
     1
 71
     2
 72
     1
 73
     1
 90
        2
 40
-0.6
 41
30.0
 62
     5
 63
     7
 74
     1
 91
        4
 64
     7
 65
   257
 75
     1
175
     1
 42
1.0
 92
        0
 66
   257
 43
1.0
 76
     1
 77
     6
 78
     2
 67
     7
 79
     5
170
     0
171
     0
290
     0
174
     0
 93
       13
 44
0.0
173
     0
291
     1
 45
0.0
1001
ACAD
1000
AcDbSavedByObjectVersion
1070
     0
  0
VISUALSTYLE
  5
2D
102
{ACAD_REACTORS
330
2A
102
}
102
{ACAD_XDICTIONARY
360
311
102
}
330
2A
100
AcDbVisualStyle
  2
Gouraud
 70
     2
 71
     2
 72
     2
 73
     1
 90
        2
 40
-0.6
 41
30.0
 62
     5
 63
     7
 74
     0
 91
        4
 64
     7
 65
   257
 75
     1
175
     1
 42
1.0
 92
        0
 66
     7
 43
1.0
 76
     1
 77
     6
 78
     2
 67
     7
 79
     5
170
     0
171
     0
290
     0
174
     0
 93
       13
 44
0.0
173
     0
291
     1
 45
0.0
1001
ACAD
1000
AcDbSavedByObjectVersion
1070
     0
  0
VISUALSTYLE
  5
2E
102
{ACAD_REACTORS
330
2A
102
}
102
{ACAD_XDICTIONARY
360
313
102
}
330
2A
100
AcDbVisualStyle
  2
GouraudWithEdges
 70
     3
 71
     2
 72
     2
 73
     1
 90
        2
 40
-0.6
 41
30.0
 62
     5
 63
     7
 74
     1
 91
        4
 64
     7
 65
   257
 75
     1
175
     1
 42
1.0
 92
        0
 66
   257
 43
1.0
 76
     1
 77
     6
 78
     2
 67
     7
 79
     5
170
     0
171
     0
290
     0
174
     0
 93
       13
 44
0.0
173
     0
291
     1
 45
0.0
1001
ACAD
1000
AcDbSavedByObjectVersion
1070
     0
  0
VISUALSTYLE
  5
38
102
{ACAD_REACTORS
330
2A
102
}
102
{ACAD_XDICTIONARY
360
327
102
}
330
2A
100
AcDbVisualStyle
  2
Linepattern
 70
    14
 71
     2
 72
     2
 73
     0
 90
        0
 40
-0.6
 41
-30.0
 62
     5
 63
     7
 74
     1
 91
        4
 64
     7
 65
   257
 75
     7
175
     7
 42
1.0
 92
        8
 66
     7
 43
1.0
 76
     1
 77
     6
 78
     2
 67
     7
 79
     5
170
     0
171
     0
290
     0
174
     0
 93
        1
 44
0.0
173
     0
291
     1
 45
0.0
1001
ACAD
1000
AcDbSavedByObjectVersion
1070
     0
  0
VISUALSTYLE
  5
33
102
{ACAD_REACTORS
330
2A
102
}
102
{ACAD_XDICTIONARY
360
31D
102
}
330
2A
100
AcDbVisualStyle
  2
Realistic
 70
     8
 71
     2
 72
     2
 73
     0
 90
        0
 40
-0.6
 41
-30.0
 62
     5
 63
     7
 74
     1
 91
        0
 64
     7
 65
   257
 75
     1
175
     1
 42
1.0
 92
        8
 66
     8
 43
1.0
 76
     1
 77
     6
 78
     2
 67
     7
 79
     5
170
     0
171
     0
290
     0
174
     0
 93
       13
 44
0.0
173
     0
291
     0
 45
0.0
1001
ACAD
1000
AcDbSavedByObjectVersion
1070
     0
  0
VISUALSTYLE
  5
37
102
{ACAD_REACTORS
330
2A
102
}
102
{ACAD_XDICTIONARY
360
325
102
}
330
2A
100
AcDbVisualStyle
  2
Thicken
 70
    13
 71
     2
 72
     2
 73
     0
 90
        0
 40
-0.6
 41
-30.0
 62
     5
 63
     7
 74
     1
 91
        4
 64
     7
 65
   257
 75
     1
175
     1
 42
1.0
 92
       12
 66
     7
 43
1.0
 76
     1
 77
     6
 78
     2
 67
     7
 79
     5
170
     0
171
     0
290
     0
174
     0
 93
        1
 44
0.0
173
     0
291
     1
 45
0.0
1001
ACAD
1000
AcDbSavedByObjectVersion
1070
     0
  0
DICTIONARYVAR
  5
30B
102
{ACAD_REACTORS
330
308
102
}
330
308
100
DictionaryVariables
280
     0
  1
2
  0
DICTIONARYVAR
  5
30C
102
{ACAD_REACTORS
330
308
102
}
330
308
100
DictionaryVariables
280
     0
  1
1
  0
DICTIONARY
  5
32F
330
3D
100
AcDbDictionary
280
     1
281
     1
  3
ACAD_XREC_ROUNDTRIP
360
330
  0
DICTIONARY
  5
32D
330
3C
100
AcDbDictionary
280
     1
281
     1
  3
ACAD_XREC_ROUNDTRIP
360
32E
  0
DICTIONARY
  5
331
330
3E
100
AcDbDictionary
280
     1
281
     1
  3
ACAD_XREC_ROUNDTRIP
360
332
  0
DICTIONARY
  5
315
330
2F
100
AcDbDictionary
280
     1
281
     1
  3
ACAD_XREC_ROUNDTRIP
360
316
  0
DICTIONARY
  5
319
330
31
100
AcDbDictionary
280
     1
281
     1
  3
ACAD_XREC_ROUNDTRIP
360
31A
  0
DICTIONARY
  5
317
330
30
100
AcDbDictionary
280
     1
281
     1
  3
ACAD_XREC_ROUNDTRIP
360
318
  0
DICTIONARY
  5
31B
330
32
100
AcDbDictionary
280
     1
281
     1
  3
ACAD_XREC_ROUNDTRIP
360
31C
  0
DICTIONARY
  5
323
330
36
100
AcDbDictionary
280
     1
281
     1
  3
ACAD_XREC_ROUNDTRIP
360
324
  0
DICTIONARY
  5
32B
330
3A
100
AcDbDictionary
280
     1
281
     1
  3
ACAD_XREC_ROUNDTRIP
360
32C
  0
DICTIONARY
  5
31F
330
34
100
AcDbDictionary
280
     1
281
     1
  3
ACAD_XREC_ROUNDTRIP
360
320
  0
DICTIONARY
  5
321
330
35
100
AcDbDictionary
280
     1
281
     1
  3
ACAD_XREC_ROUNDTRIP
360
322
  0
DICTIONARY
  5
329
330
39
100
AcDbDictionary
280
     1
281
     1
  3
ACAD_XREC_ROUNDTRIP
360
32A
  0
DICTIONARY
  5
30D
330
2B
100
AcDbDictionary
280
     1
281
     1
  3
ACAD_XREC_ROUNDTRIP
360
30E
  0
DICTIONARY
  5
30F
330
2C
100
AcDbDictionary
280
     1
281
     1
  3
ACAD_XREC_ROUNDTRIP
360
310
  0
DICTIONARY
  5
311
330
2D
100
AcDbDictionary
280
     1
281
     1
  3
ACAD_XREC_ROUNDTRIP
360
312
  0
DICTIONARY
  5
313
330
2E
100
AcDbDictionary
280
     1
281
     1
  3
ACAD_XREC_ROUNDTRIP
360
314
  0
DICTIONARY
  5
327
330
38
100
AcDbDictionary
280
     1
281
     1
  3
ACAD_XREC_ROUNDTRIP
360
328
  0
DICTIONARY
  5
31D
330
33
100
AcDbDictionary
280
     1
281
     1
  3
ACAD_XREC_ROUNDTRIP
360
31E
  0
DICTIONARY
  5
325
330
37
100
AcDbDictionary
280
     1
281
     1
  3
ACAD_XREC_ROUNDTRIP
360
326
  0
XRECORD
  5
330
102
{ACAD_REACTORS
330
32F
102
}
330
32F
100
AcDbXrecord
280
     1
102
MATERIAL
148
0.0
149
0.0
149
0.0
 93
        0
 94
      127
282
     0
 72
     1
 77
     1
171
     1
175
     1
179
     1
273
     0
  0
XRECORD
  5
32E
102
{ACAD_REACTORS
330
32D
102
}
330
32D
100
AcDbXrecord
280
     1
102
MATERIAL
148
0.0
149
0.0
149
0.0
 93
        0
 94
      127
282
     0
 72
     1
 77
     1
171
     1
175
     1
179
     1
273
     0
  0
XRECORD
  5
332
102
{ACAD_REACTORS
330
331
102
}
330
331
100
AcDbXrecord
280
     1
102
MATERIAL
148
0.0
149
0.0
149
0.0
 93
        0
 94
      127
282
     0
 72
     1
 77
     1
171
     1
175
     1
179
     1
273
     0
  0
XRECORD
  5
316
102
{ACAD_REACTORS
330
315
102
}
330
315
100
AcDbXrecord
280
     1
102
RTVSPropertyOp0
 70
     1
102
RTVSPropertyOp1
 70
     1
102
RTVSPropertyOp2
 70
     1
102
RTVSPropertyOp3
 70
     1
102
RTVSPropertyOp4
 70
     1
102
RTVSPropertyOp5
 70
     1
102
RTVSPropertyOp6
 70
     1
102
RTVSPropertyOp7
 70
     1
102
RTVSPropertyOp8
 70
     1
102
RTVSPropertyOp9
 70
     1
102
RTVSPropertyOp10
 70
     1
102
RTVSPropertyOp11
 70
     1
102
RTVSPropertyOp12
 70
     1
102
RTVSPropertyOp13
 70
     1
102
RTVSPropertyOp14
 70
     1
102
RTVSPropertyOp15
 70
     1
102
RTVSPropertyOp16
 70
     1
102
RTVSPropertyOp17
 70
     1
102
RTVSPropertyOp18
 70
     1
102
RTVSPropertyOp19
 70
     1
102
RTVSPropertyOp20
 70
     1
102
RTVSPropertyOp21
 70
     1
102
RTVSPropertyOp22
 70
     1
102
RTVSPropertyOp23
 70
     1
102
RTVSPropertyOp24
 70
     1
102
RTVSPropertyOp25
 70
     1
102
RTVSPropertyOp26
 70
     1
102
RTVSPropertyOp27
 70
     1
102
RTVSPropertyOp28
 70
     1
102
RTVSPropertyOp29
 70
     1
102
RTVSPropertyOp30
 70
     1
102
RTVSPropertyOp31
 70
     1
102
RTVSPropertyOp32
 70
     1
  0
XRECORD
  5
31A
102
{ACAD_REACTORS
330
319
102
}
330
319
100
AcDbXrecord
280
     1
102
RTVSPropertyOp0
 70
     1
102
RTVSPropertyOp1
 70
     1
102
RTVSPropertyOp2
 70
     1
102
RTVSPropertyOp3
 70
     1
102
RTVSPropertyOp4
 70
     1
102
RTVSPropertyOp5
 70
     1
102
RTVSPropertyOp6
 70
     1
102
RTVSPropertyOp7
 70
     1
102
RTVSPropertyOp8
 70
     1
102
RTVSPropertyOp9
 70
     1
102
RTVSPropertyOp10
 70
     1
102
RTVSPropertyOp11
 70
     1
102
RTVSPropertyOp12
 70
     1
102
RTVSPropertyOp13
 70
     1
102
RTVSPropertyOp14
 70
     1
102
RTVSPropertyOp15
 70
     1
102
RTVSPropertyOp16
 70
     1
102
RTVSPropertyOp17
 70
     1
102
RTVSPropertyOp18
 70
     1
102
RTVSPropertyOp19
 70
     1
102
RTVSPropertyOp20
 70
     1
102
RTVSPropertyOp21
 70
     1
102
RTVSPropertyOp22
 70
     1
102
RTVSPropertyOp23
 70
     1
102
RTVSPropertyOp24
 70
     1
102
RTVSPropertyOp25
 70
     1
102
RTVSPropertyOp26
 70
     1
102
RTVSPropertyOp27
 70
     1
102
RTVSPropertyOp28
 70
     1
102
RTVSPropertyOp29
 70
     1
102
RTVSPropertyOp30
 70
     1
102
RTVSPropertyOp31
 70
     1
102
RTVSPropertyOp32
 70
     1
  0
XRECORD
  5
318
102
{ACAD_REACTORS
330
317
102
}
330
317
100
AcDbXrecord
280
     1
102
RTVSPropertyOp0
 70
     1
102
RTVSPropertyOp1
 70
     1
102
RTVSPropertyOp2
 70
     1
102
RTVSPropertyOp3
 70
     1
102
RTVSPropertyOp4
 70
     1
102
RTVSPropertyOp5
 70
     1
102
RTVSPropertyOp6
 70
     1
102
RTVSPropertyOp7
 70
     1
102
RTVSPropertyOp8
 70
     1
102
RTVSPropertyOp9
 70
     1
102
RTVSPropertyOp10
 70
     1
102
RTVSPropertyOp11
 70
     1
102
RTVSPropertyOp12
 70
     1
102
RTVSPropertyOp13
 70
     1
102
RTVSPropertyOp14
 70
     1
102
RTVSPropertyOp15
 70
     1
102
RTVSPropertyOp16
 70
     1
102
RTVSPropertyOp17
 70
     1
102
RTVSPropertyOp18
 70
     1
102
RTVSPropertyOp19
 70
     1
102
RTVSPropertyOp20
 70
     1
102
RTVSPropertyOp21
 70
     1
102
RTVSPropertyOp22
 70
     1
102
RTVSPropertyOp23
 70
     1
102
RTVSPropertyOp24
 70
     1
102
RTVSPropertyOp25
 70
     1
102
RTVSPropertyOp26
 70
     1
102
RTVSPropertyOp27
 70
     1
102
RTVSPropertyOp28
 70
     1
102
RTVSPropertyOp29
 70
     1
102
RTVSPropertyOp30
 70
     1
102
RTVSPropertyOp31
 70
     1
102
RTVSPropertyOp32
 70
     1
  0
XRECORD
  5
31C
102
{ACAD_REACTORS
330
31B
102
}
330
31B
100
AcDbXrecord
280
     1
102
RTVSPropertyOp0
 70
     1
102
RTVSPropertyOp1
 70
     1
102
RTVSPropertyOp2
 70
     1
102
RTVSPropertyOp3
 70
     1
102
RTVSPropertyOp4
 70
     1
102
RTVSPropertyOp5
 70
     1
102
RTVSPropertyOp6
 70
     1
102
RTVSPropertyOp7
 70
     1
102
RTVSPropertyOp8
 70
     1
102
RTVSPropertyOp9
 70
     1
102
RTVSPropertyOp10
 70
     1
102
RTVSPropertyOp11
 70
     1
102
RTVSPropertyOp12
 70
     1
102
RTVSPropertyOp13
 70
     1
102
RTVSPropertyOp14
 70
     1
102
RTVSPropertyOp15
 70
     1
102
RTVSPropertyOp16
 70
     1
102
RTVSPropertyOp17
 70
     1
102
RTVSPropertyOp18
 70
     1
102
RTVSPropertyOp19
 70
     1
102
RTVSPropertyOp20
 70
     1
102
RTVSPropertyOp21
 70
     1
102
RTVSPropertyOp22
 70
     1
102
RTVSPropertyOp23
 70
     1
102
RTVSPropertyOp24
 70
     1
102
RTVSPropertyOp25
 70
     1
102
RTVSPropertyOp26
 70
     1
102
RTVSPropertyOp27
 70
     1
102
RTVSPropertyOp28
 70
     1
102
RTVSPropertyOp29
 70
     1
102
RTVSPropertyOp30
 70
     1
102
RTVSPropertyOp31
 70
     1
102
RTVSPropertyOp32
 70
     1
  0
XRECORD
  5
324
102
{ACAD_REACTORS
330
323
102
}
330
323
100
AcDbXrecord
280
     1
102
RTVSPropertyOp0
 70
     1
102
RTVSPropertyOp1
 70
     1
102
RTVSPropertyOp2
 70
     1
102
RTVSPropertyOp3
 70
     1
102
RTVSPropertyOp4
 70
     1
102
RTVSPropertyOp5
 70
     1
102
RTVSPropertyOp6
 70
     1
102
RTVSPropertyOp7
 70
     1
102
RTVSPropertyOp8
 70
     1
102
RTVSPropertyOp9
 70
     1
102
RTVSPropertyOp10
 70
     1
102
RTVSPropertyOp11
 70
     1
102
RTVSPropertyOp12
 70
     1
102
RTVSPropertyOp13
 70
     1
102
RTVSPropertyOp14
 70
     1
102
RTVSPropertyOp15
 70
     1
102
RTVSPropertyOp16
 70
     1
102
RTVSPropertyOp17
 70
     1
102
RTVSPropertyOp18
 70
     1
102
RTVSPropertyOp19
 70
     1
102
RTVSPropertyOp20
 70
     1
102
RTVSPropertyOp21
 70
     1
102
RTVSPropertyOp22
 70
     1
102
RTVSPropertyOp23
 70
     1
102
RTVSPropertyOp24
 70
     1
102
RTVSPropertyOp25
 70
     1
102
RTVSPropertyOp26
 70
     1
102
RTVSPropertyOp27
 70
     1
102
RTVSPropertyOp28
 70
     1
102
RTVSPropertyOp29
 70
     1
102
RTVSPropertyOp30
 70
     1
102
RTVSPropertyOp31
 70
     1
102
RTVSPropertyOp32
 70
     1
  0
XRECORD
  5
32C
102
{ACAD_REACTORS
330
32B
102
}
330
32B
100
AcDbXrecord
280
     1
102
RTVSPropertyOp0
 70
     1
102
RTVSPropertyOp1
 70
     1
102
RTVSPropertyOp2
 70
     1
102
RTVSPropertyOp3
 70
     1
102
RTVSPropertyOp4
 70
     1
102
RTVSPropertyOp5
 70
     1
102
RTVSPropertyOp6
 70
     1
102
RTVSPropertyOp7
 70
     1
102
RTVSPropertyOp8
 70
     1
102
RTVSPropertyOp9
 70
     1
102
RTVSPropertyOp10
 70
     1
102
RTVSPropertyOp11
 70
     1
102
RTVSPropertyOp12
 70
     1
102
RTVSPropertyOp13
 70
     1
102
RTVSPropertyOp14
 70
     1
102
RTVSPropertyOp15
 70
     1
102
RTVSPropertyOp16
 70
     1
102
RTVSPropertyOp17
 70
     1
102
RTVSPropertyOp18
 70
     1
102
RTVSPropertyOp19
 70
     1
102
RTVSPropertyOp20
 70
     1
102
RTVSPropertyOp21
 70
     1
102
RTVSPropertyOp22
 70
     1
102
RTVSPropertyOp23
 70
     1
102
RTVSPropertyOp24
 70
     1
102
RTVSPropertyOp25
 70
     1
102
RTVSPropertyOp26
 70
     1
102
RTVSPropertyOp27
 70
     1
102
RTVSPropertyOp28
 70
     1
102
RTVSPropertyOp29
 70
     1
102
RTVSPropertyOp30
 70
     1
102
RTVSPropertyOp31
 70
     1
102
RTVSPropertyOp32
 70
     1
  0
XRECORD
  5
320
102
{ACAD_REACTORS
330
31F
102
}
330
31F
100
AcDbXrecord
280
     1
102
RTVSPropertyOp0
 70
     1
102
RTVSPropertyOp1
 70
     1
102
RTVSPropertyOp2
 70
     1
102
RTVSPropertyOp3
 70
     1
102
RTVSPropertyOp4
 70
     1
102
RTVSPropertyOp5
 70
     1
102
RTVSPropertyOp6
 70
     1
102
RTVSPropertyOp7
 70
     1
102
RTVSPropertyOp8
 70
     1
102
RTVSPropertyOp9
 70
     1
102
RTVSPropertyOp10
 70
     1
102
RTVSPropertyOp11
 70
     1
102
RTVSPropertyOp12
 70
     1
102
RTVSPropertyOp13
 70
     1
102
RTVSPropertyOp14
 70
     1
102
RTVSPropertyOp15
 70
     1
102
RTVSPropertyOp16
 70
     1
102
RTVSPropertyOp17
 70
     1
102
RTVSPropertyOp18
 70
     1
102
RTVSPropertyOp19
 70
     1
102
RTVSPropertyOp20
 70
     1
102
RTVSPropertyOp21
 70
     1
102
RTVSPropertyOp22
 70
     1
102
RTVSPropertyOp23
 70
     1
102
RTVSPropertyOp24
 70
     1
102
RTVSPropertyOp25
 70
     1
102
RTVSPropertyOp26
 70
     1
102
RTVSPropertyOp27
 70
     1
102
RTVSPropertyOp28
 70
     1
102
RTVSPropertyOp29
 70
     1
102
RTVSPropertyOp30
 70
     1
102
RTVSPropertyOp31
 70
     1
102
RTVSPropertyOp32
 70
     1
  0
XRECORD
  5
322
102
{ACAD_REACTORS
330
321
102
}
330
321
100
AcDbXrecord
280
     1
102
RTVSPropertyOp0
 70
     1
102
RTVSPropertyOp1
 70
     1
102
RTVSPropertyOp2
 70
     1
102
RTVSPropertyOp3
 70
     1
102
RTVSPropertyOp4
 70
     1
102
RTVSPropertyOp5
 70
     1
102
RTVSPropertyOp6
 70
     1
102
RTVSPropertyOp7
 70
     1
102
RTVSPropertyOp8
 70
     1
102
RTVSPropertyOp9
 70
     1
102
RTVSPropertyOp10
 70
     1
102
RTVSPropertyOp11
 70
     1
102
RTVSPropertyOp12
 70
     1
102
RTVSPropertyOp13
 70
     1
102
RTVSPropertyOp14
 70
     1
102
RTVSPropertyOp15
 70
     1
102
RTVSPropertyOp16
 70
     1
102
RTVSPropertyOp17
 70
     1
102
RTVSPropertyOp18
 70
     1
102
RTVSPropertyOp19
 70
     1
102
RTVSPropertyOp20
 70
     1
102
RTVSPropertyOp21
 70
     1
102
RTVSPropertyOp22
 70
     1
102
RTVSPropertyOp23
 70
     1
102
RTVSPropertyOp24
 70
     1
102
RTVSPropertyOp25
 70
     1
102
RTVSPropertyOp26
 70
     1
102
RTVSPropertyOp27
 70
     1
102
RTVSPropertyOp28
 70
     1
102
RTVSPropertyOp29
 70
     1
102
RTVSPropertyOp30
 70
     1
102
RTVSPropertyOp31
 70
     1
102
RTVSPropertyOp32
 70
     1
  0
XRECORD
  5
32A
102
{ACAD_REACTORS
330
329
102
}
330
329
100
AcDbXrecord
280
     1
102
RTVSPropertyOp0
 70
     1
102
RTVSPropertyOp1
 70
     1
102
RTVSPropertyOp2
 70
     1
102
RTVSPropertyOp3
 70
     1
102
RTVSPropertyOp4
 70
     1
102
RTVSPropertyOp5
 70
     1
102
RTVSPropertyOp6
 70
     1
102
RTVSPropertyOp7
 70
     1
102
RTVSPropertyOp8
 70
     1
102
RTVSPropertyOp9
 70
     1
102
RTVSPropertyOp10
 70
     1
102
RTVSPropertyOp11
 70
     1
102
RTVSPropertyOp12
 70
     1
102
RTVSPropertyOp13
 70
     1
102
RTVSPropertyOp14
 70
     1
102
RTVSPropertyOp15
 70
     1
102
RTVSPropertyOp16
 70
     1
102
RTVSPropertyOp17
 70
     1
102
RTVSPropertyOp18
 70
     1
102
RTVSPropertyOp19
 70
     1
102
RTVSPropertyOp20
 70
     1
102
RTVSPropertyOp21
 70
     1
102
RTVSPropertyOp22
 70
     1
102
RTVSPropertyOp23
 70
     1
102
RTVSPropertyOp24
 70
     1
102
RTVSPropertyOp25
 70
     1
102
RTVSPropertyOp26
 70
     1
102
RTVSPropertyOp27
 70
     1
102
RTVSPropertyOp28
 70
     1
102
RTVSPropertyOp29
 70
     1
102
RTVSPropertyOp30
 70
     1
102
RTVSPropertyOp31
 70
     1
102
RTVSPropertyOp32
 70
     1
  0
XRECORD
  5
30E
102
{ACAD_REACTORS
330
30D
102
}
330
30D
100
AcDbXrecord
280
     1
102
RTVSPropertyOp0
 70
     1
102
RTVSPropertyOp1
 70
     1
102
RTVSPropertyOp2
 70
     1
102
RTVSPropertyOp3
 70
     1
102
RTVSPropertyOp4
 70
     1
102
RTVSPropertyOp5
 70
     1
102
RTVSPropertyOp6
 70
     1
102
RTVSPropertyOp7
 70
     1
102
RTVSPropertyOp8
 70
     1
102
RTVSPropertyOp9
 70
     1
102
RTVSPropertyOp10
 70
     1
102
RTVSPropertyOp11
 70
     1
102
RTVSPropertyOp12
 70
     1
102
RTVSPropertyOp13
 70
     1
102
RTVSPropertyOp14
 70
     1
102
RTVSPropertyOp15
 70
     1
102
RTVSPropertyOp16
 70
     1
102
RTVSPropertyOp17
 70
     1
102
RTVSPropertyOp18
 70
     1
102
RTVSPropertyOp19
 70
     1
102
RTVSPropertyOp20
 70
     1
102
RTVSPropertyOp21
 70
     1
102
RTVSPropertyOp22
 70
     1
102
RTVSPropertyOp23
 70
     1
102
RTVSPropertyOp24
 70
     1
102
RTVSPropertyOp25
 70
     1
102
RTVSPropertyOp26
 70
     1
102
RTVSPropertyOp27
 70
     1
102
RTVSPropertyOp28
 70
     1
102
RTVSPropertyOp29
 70
     1
102
RTVSPropertyOp30
 70
     1
102
RTVSPropertyOp31
 70
     1
102
RTVSPropertyOp32
 70
     1
  0
XRECORD
  5
310
102
{ACAD_REACTORS
330
30F
102
}
330
30F
100
AcDbXrecord
280
     1
102
RTVSPropertyOp0
 70
     1
102
RTVSPropertyOp1
 70
     1
102
RTVSPropertyOp2
 70
     1
102
RTVSPropertyOp3
 70
     1
102
RTVSPropertyOp4
 70
     1
102
RTVSPropertyOp5
 70
     1
102
RTVSPropertyOp6
 70
     1
102
RTVSPropertyOp7
 70
     1
102
RTVSPropertyOp8
 70
     1
102
RTVSPropertyOp9
 70
     1
102
RTVSPropertyOp10
 70
     1
102
RTVSPropertyOp11
 70
     1
102
RTVSPropertyOp12
 70
     1
102
RTVSPropertyOp13
 70
     1
102
RTVSPropertyOp14
 70
     1
102
RTVSPropertyOp15
 70
     1
102
RTVSPropertyOp16
 70
     1
102
RTVSPropertyOp17
 70
     1
102
RTVSPropertyOp18
 70
     1
102
RTVSPropertyOp19
 70
     1
102
RTVSPropertyOp20
 70
     1
102
RTVSPropertyOp21
 70
     1
102
RTVSPropertyOp22
 70
     1
102
RTVSPropertyOp23
 70
     1
102
RTVSPropertyOp24
 70
     1
102
RTVSPropertyOp25
 70
     1
102
RTVSPropertyOp26
 70
     1
102
RTVSPropertyOp27
 70
     1
102
RTVSPropertyOp28
 70
     1
102
RTVSPropertyOp29
 70
     1
102
RTVSPropertyOp30
 70
     1
102
RTVSPropertyOp31
 70
     1
102
RTVSPropertyOp32
 70
     1
  0
XRECORD
  5
312
102
{ACAD_REACTORS
330
311
102
}
330
311
100
AcDbXrecord
280
     1
102
RTVSPropertyOp0
 70
     1
102
RTVSPropertyOp1
 70
     1
102
RTVSPropertyOp2
 70
     1
102
RTVSPropertyOp3
 70
     1
102
RTVSPropertyOp4
 70
     1
102
RTVSPropertyOp5
 70
     1
102
RTVSPropertyOp6
 70
     1
102
RTVSPropertyOp7
 70
     1
102
RTVSPropertyOp8
 70
     1
102
RTVSPropertyOp9
 70
     1
102
RTVSPropertyOp10
 70
     1
102
RTVSPropertyOp11
 70
     1
102
RTVSPropertyOp12
 70
     1
102
RTVSPropertyOp13
 70
     1
102
RTVSPropertyOp14
 70
     1
102
RTVSPropertyOp15
 70
     1
102
RTVSPropertyOp16
 70
     1
102
RTVSPropertyOp17
 70
     1
102
RTVSPropertyOp18
 70
     1
102
RTVSPropertyOp19
 70
     1
102
RTVSPropertyOp20
 70
     1
102
RTVSPropertyOp21
 70
     1
102
RTVSPropertyOp22
 70
     1
102
RTVSPropertyOp23
 70
     1
102
RTVSPropertyOp24
 70
     1
102
RTVSPropertyOp25
 70
     1
102
RTVSPropertyOp26
 70
     1
102
RTVSPropertyOp27
 70
     1
102
RTVSPropertyOp28
 70
     1
102
RTVSPropertyOp29
 70
     1
102
RTVSPropertyOp30
 70
     1
102
RTVSPropertyOp31
 70
     1
102
RTVSPropertyOp32
 70
     1
  0
XRECORD
  5
314
102
{ACAD_REACTORS
330
313
102
}
330
313
100
AcDbXrecord
280
     1
102
RTVSPropertyOp0
 70
     1
102
RTVSPropertyOp1
 70
     1
102
RTVSPropertyOp2
 70
     1
102
RTVSPropertyOp3
 70
     1
102
RTVSPropertyOp4
 70
     1
102
RTVSPropertyOp5
 70
     1
102
RTVSPropertyOp6
 70
     1
102
RTVSPropertyOp7
 70
     1
102
RTVSPropertyOp8
 70
     1
102
RTVSPropertyOp9
 70
     1
102
RTVSPropertyOp10
 70
     1
102
RTVSPropertyOp11
 70
     1
102
RTVSPropertyOp12
 70
     1
102
RTVSPropertyOp13
 70
     1
102
RTVSPropertyOp14
 70
     1
102
RTVSPropertyOp15
 70
     1
102
RTVSPropertyOp16
 70
     1
102
RTVSPropertyOp17
 70
     1
102
RTVSPropertyOp18
 70
     1
102
RTVSPropertyOp19
 70
     1
102
RTVSPropertyOp20
 70
     1
102
RTVSPropertyOp21
 70
     1
102
RTVSPropertyOp22
 70
     1
102
RTVSPropertyOp23
 70
     1
102
RTVSPropertyOp24
 70
     1
102
RTVSPropertyOp25
 70
     1
102
RTVSPropertyOp26
 70
     1
102
RTVSPropertyOp27
 70
     1
102
RTVSPropertyOp28
 70
     1
102
RTVSPropertyOp29
 70
     1
102
RTVSPropertyOp30
 70
     1
102
RTVSPropertyOp31
 70
     1
102
RTVSPropertyOp32
 70
     1
  0
XRECORD
  5
328
102
{ACAD_REACTORS
330
327
102
}
330
327
100
AcDbXrecord
280
     1
102
RTVSPropertyOp0
 70
     1
102
RTVSPropertyOp1
 70
     1
102
RTVSPropertyOp2
 70
     1
102
RTVSPropertyOp3
 70
     1
102
RTVSPropertyOp4
 70
     1
102
RTVSPropertyOp5
 70
     1
102
RTVSPropertyOp6
 70
     1
102
RTVSPropertyOp7
 70
     1
102
RTVSPropertyOp8
 70
     1
102
RTVSPropertyOp9
 70
     1
102
RTVSPropertyOp10
 70
     1
102
RTVSPropertyOp11
 70
     1
102
RTVSPropertyOp12
 70
     1
102
RTVSPropertyOp13
 70
     1
102
RTVSPropertyOp14
 70
     1
102
RTVSPropertyOp15
 70
     1
102
RTVSPropertyOp16
 70
     1
102
RTVSPropertyOp17
 70
     1
102
RTVSPropertyOp18
 70
     1
102
RTVSPropertyOp19
 70
     1
102
RTVSPropertyOp20
 70
     1
102
RTVSPropertyOp21
 70
     1
102
RTVSPropertyOp22
 70
     1
102
RTVSPropertyOp23
 70
     1
102
RTVSPropertyOp24
 70
     1
102
RTVSPropertyOp25
 70
     1
102
RTVSPropertyOp26
 70
     1
102
RTVSPropertyOp27
 70
     1
102
RTVSPropertyOp28
 70
     1
102
RTVSPropertyOp29
 70
     1
102
RTVSPropertyOp30
 70
     1
102
RTVSPropertyOp31
 70
     1
102
RTVSPropertyOp32
 70
     1
  0
XRECORD
  5
31E
102
{ACAD_REACTORS
330
31D
102
}
330
31D
100
AcDbXrecord
280
     1
102
RTVSPropertyOp0
 70
     1
102
RTVSPropertyOp1
 70
     1
102
RTVSPropertyOp2
 70
     1
102
RTVSPropertyOp3
 70
     1
102
RTVSPropertyOp4
 70
     1
102
RTVSPropertyOp5
 70
     1
102
RTVSPropertyOp6
 70
     1
102
RTVSPropertyOp7
 70
     1
102
RTVSPropertyOp8
 70
     1
102
RTVSPropertyOp9
 70
     1
102
RTVSPropertyOp10
 70
     1
102
RTVSPropertyOp11
 70
     1
102
RTVSPropertyOp12
 70
     1
102
RTVSPropertyOp13
 70
     1
102
RTVSPropertyOp14
 70
     1
102
RTVSPropertyOp15
 70
     1
102
RTVSPropertyOp16
 70
     1
102
RTVSPropertyOp17
 70
     1
102
RTVSPropertyOp18
 70
     1
102
RTVSPropertyOp19
 70
     1
102
RTVSPropertyOp20
 70
     1
102
RTVSPropertyOp21
 70
     1
102
RTVSPropertyOp22
 70
     1
102
RTVSPropertyOp23
 70
     1
102
RTVSPropertyOp24
 70
     1
102
RTVSPropertyOp25
 70
     1
102
RTVSPropertyOp26
 70
     1
102
RTVSPropertyOp27
 70
     1
102
RTVSPropertyOp28
 70
     1
102
RTVSPropertyOp29
 70
     1
102
RTVSPropertyOp30
 70
     1
102
RTVSPropertyOp31
 70
     1
102
RTVSPropertyOp32
 70
     1
  0
XRECORD
  5
326
102
{ACAD_REACTORS
330
325
102
}
330
325
100
AcDbXrecord
280
     1
102
RTVSPropertyOp0
 70
     1
102
RTVSPropertyOp1
 70
     1
102
RTVSPropertyOp2
 70
     1
102
RTVSPropertyOp3
 70
     1
102
RTVSPropertyOp4
 70
     1
102
RTVSPropertyOp5
 70
     1
102
RTVSPropertyOp6
 70
     1
102
RTVSPropertyOp7
 70
     1
102
RTVSPropertyOp8
 70
     1
102
RTVSPropertyOp9
 70
     1
102
RTVSPropertyOp10
 70
     1
102
RTVSPropertyOp11
 70
     1
102
RTVSPropertyOp12
 70
     1
102
RTVSPropertyOp13
 70
     1
102
RTVSPropertyOp14
 70
     1
102
RTVSPropertyOp15
 70
     1
102
RTVSPropertyOp16
 70
     1
102
RTVSPropertyOp17
 70
     1
102
RTVSPropertyOp18
 70
     1
102
RTVSPropertyOp19
 70
     1
102
RTVSPropertyOp20
 70
     1
102
RTVSPropertyOp21
 70
     1
102
RTVSPropertyOp22
 70
     1
102
RTVSPropertyOp23
 70
     1
102
RTVSPropertyOp24
 70
     1
102
RTVSPropertyOp25
 70
     1
102
RTVSPropertyOp26
 70
     1
102
RTVSPropertyOp27
 70
     1
102
RTVSPropertyOp28
 70
     1
102
RTVSPropertyOp29
 70
     1
102
RTVSPropertyOp30
 70
     1
102
RTVSPropertyOp31
 70
     1
102
RTVSPropertyOp32
 70
     1
  0
ENDSEC
  0
EOF
